Welcome Guest ( Log In | Register )

> Nile - Nile, 2016.03.29 ,Klubi, Tampere, Finland [bootleg] (2016), Brutal/Technical Death Metal (D)
post Apr 9 2016, 15:25:41
Post #1

Hellhammer/Celtic Frost/Triptykon
**************
Group: Металариец
Posts: 2,186
Releases: 777
From: Новосибирск
On Forums: 10 years 10 months
Thanks: 6265 time(s)
Russian Federation


(IMG:http://metalarea.org/images/audiocovers/2016_Apr/acov_tid265537_thumb.jpg)

*Artist: Nile
*Album: Nile, 2016.03.29 ,Klubi, Tampere, Finland [bootleg]
*Year: 2016
*Genre: Brutal/Technical Death Metal
*Country: United States (IMG:http://metalarea.org/forum/style_images/flags/United%20States.png)
*Format: mp3@CBR320kbps
*Size: 183MB

Tracklist:
01.Intro 1:26
02.Sacrifice Unto Sebek 4:16
03.Defiling the Gates of Ishtar 4:23
04.Kafir! 7:13
05.Hittite Dung Incantation 4:38
06.Call to Destruction 6:07
07.In the Name of Amun 7:39
08.Ithyphallic 5:15
09.The Howling of the Jinn 2:48
10.What Should Not Be Unearthed 7:36
11.The Inevitable Degradation of Flesh 5:56
12.Evil to Cast Out Evil 6:37
13.Sarcophagus 6:38
14.Lashed to the Slave Stick 4:57
15.Black Seeds of Vengeance 4:26
******************************
Total playing time: 1:19:55

Extended info
Nile, 2016.03.29 ,Klubi, Tampere, Finland - Live!


Technical info
(IMG:http://metalarea.org/images/spectrogram/2016_Apr/fa7f674a8971521ca33ebfc171fd0169.png)
Input File: 03.Defiling the Gates of Ishtar.mp3
Channels : 2
Sample Rate : 44100
Precision : 16-bit
Duration : 00:04:23.29 = 11611045 samples = 19746.7 CDDA sectors
File Size : 10.5M
Bit Rate : 320k
Sample Encoding: MPEG audio (layer I, II or III)
Comments :
Artist=Nile
Tracknumber=3
Genre=12



Register


Go to the top of the page
  Insert nick Quick quote
+Quote Post
 
Start new topic
Replies (1 - 4)
post Jul 13 2019, 22:18:56
Post #2

Литр
*
Group: Подсевший
Posts: 85
Releases: 0
On Forums: 6 years 7 months
Thanks: 2 time(s)
Nicaragua


Re-upload this live album please!..link is death...
Go to the top of the page
  Insert nick Quick quote
+Quote Post
post Jul 16 2019, 19:31:47
Post #3

Литр
*
Group: Подсевший
Posts: 85
Releases: 0
On Forums: 6 years 7 months
Thanks: 2 time(s)
Nicaragua


Re-upload this live bootleg please! Links is death
Go to the top of the page
  Insert nick Quick quote
+Quote Post
post Jul 18 2019, 03:15:57
Post #4

Литр
*
Group: Подсевший
Posts: 85
Releases: 0
On Forums: 6 years 7 months
Thanks: 2 time(s)
Nicaragua


Who can re-upload this live bootleg?

I will appreciate that!
Go to the top of the page
  Insert nick Quick quote
+Quote Post
post Jul 21 2019, 20:26:36
Post #5

Литр
*
Group: Подсевший
Posts: 85
Releases: 0
On Forums: 6 years 7 months
Thanks: 2 time(s)
Nicaragua


Re-upload this live bootleg please!

I will appreciate that...
Go to the top of the page
  Insert nick Quick quote
+Quote Post

Reply to this topicStart new topic
1 User(s) are reading this topic (1 Guests and 0 Anonymous Users)
0 Members:

 



- Lo-Fi Version Support form
Copyrights and abuse reports form
Time is now: 23rd July 2019 - 23:19:55