Welcome Guest ( Log In | Register )

> Nord Frost - Inter Sidera (2016), Atmospheric Black Metal (D10)
post Apr 9 2016, 17:42:45
Post #1

Аннигилятор пивА
Group Icon
Group: V.I.P
Posts: 46,692
Releases: 14016
From: Koenigsberg - TILZIT
On Forums: 11 years 11 months
Thanks: 310881 time(s)
Russian Federation


(IMG:http://metalarea.org/images/audiocovers/2016_Apr/acov_tid265547_thumb.jpg)

*Artist: Nord Frost
*Album: Inter Sidera
*Year: 2016
*Genre: Atmospheric Black Metal
*Country: Kazakhstan (IMG:http://metalarea.org/forum/style_images/flags/Kazakhstan.png)
*Format: mp3@CBR320kbps
*Size: 94MB

Tracklist:
1. Itineris 02:28
2. Nocte Caelum 05:20
3. IC1805 11:41
4. LBN 667 04:50
5. Speculum Animae 09:30
6. Terra 05:12
******************************
Total playing time: 39:01



Extended info
"Inter Sidera" - this is the next work after "Beatitudo" of a talented project from Kazakhstan! Melancholic, romantic and disturbing journey through the boundless night heaven among the stars to endless space which is the mirror of the soul which can help to understand yourself!


Technical info
(IMG:http://metalarea.org/images/spectrogram/2016_Apr/44db43969e9284855d35c6ad0c854ae6.png)
Input File: Nord Frost - Nord Frost - -Inter Sidera- - 02 Nocte Caelum.mp3
Channels : 2
Sample Rate : 44100
Precision : 16-bit
Duration : 00:05:20.94 = 14153630 samples = 24070.8 CDDA sectors
File Size : 13.0M
Bit Rate : 323k
Sample Encoding: MPEG audio (layer I, II or III)
Comments :
Title=Nocte Caelum
Artist=Nord Frost
Album=Nord Frost - "Inter Sidera"
Tracknumber=2
Year=2016



Register


Вернуться к началу страницы
  Insert nick Quick quote
+Цитировать сообщение
 
Создать новую тему
Replies (1 - 1)
post Feb 14 2018, 18:03:39
Post #2

Group: Подсевший
Posts: 24
Releases: 0
On Forums: 1 year 3 weeks
Thanks: 0 time(s)
Russian Federation


где скачать можно?
Вернуться к началу страницы
  Insert nick Quick quote
+Цитировать сообщение

ОтветитьСоздать новую тему
1 User(s) are reading this topic (1 Guests and 0 Anonymous Users)
0 Members:

 



- Lo-Fi Version Support form
Copyrights and abuse reports form
Time is now: 25th May 2018 - 02:11:19