Welcome Guest ( Log In | Register )

> Dark Oath - When Fire Engulfs The Earth (2016), Epic Melodic Death Metal
post Apr 14 2016, 14:38:53
Post #1

Serial Uploader
Group Icon
Group: V.I.P
Posts: 37,532
Releases: 35706
From: Lithuania
On Forums: 12 years 10 months
Thanks: 431399 time(s)
Lithuania


(IMG:http://metalarea.org/images/audiocovers/2016_Apr/acov_tid265795_thumb.jpg)

*Artist: Dark Oath
*Album: When Fire Engulfs The Earth
*Year: 2016
*Genre: Epic Melodic Death Metal
*Country: Portugal (IMG:http://metalarea.org/forum/style_images/flags/Portugal.png)
*Format: mp3@CBR320kbps
*Size: 161MB

Tracklist:
01. Land Of Ours 05:27
02. The Tree Of Life 06:32
03. Battle Sons 06:32
04. Watchman Of Gods 07:37
05. Thousand Beasts 05:08
06. Death Of Northern Sons 05:46
07. Wrath Unleashed 05:49
08. Vengeful Gods 05:47
09. When Fire Engulfs The Earth 05:18
10. Brother's Fall 09:54
******************************
Total playing time: 1:03:50



(IMG:http://metalarea.org/images/myspace.png)

(IMG:http://metalarea.org/images/youtube.png)

Technical info
(IMG:http://metalarea.org/images/spectrogram/2016_Apr/3c91380d22e6247debcc621285a22177.png)
Input File: 02. The Tree Of Life.mp3
Channels : 2
Sample Rate : 44100
Precision : 16-bit
Duration : 00:06:31.75 = 17275999 samples = 29381 CDDA sectors
File Size : 16.5M
Bit Rate : 337k
Sample Encoding: MPEG audio (layer I, II or III)
Comments :
Title=The Tree Of Life
Artist=Dark Oath
Album=When Fire Engulfs the Earth
Tracknumber=2/10
Year=2016



Register


Go to the top of the page
  Insert nick Quick quote
+Quote Post
2 Pages V  < 1 2  
Start new topic
Replies (30 - 35)
post Sep 8 2017, 18:52:47
Post #31

::
**************
Group: Металариец
Posts: 2,295
Releases: 3
From: Воронеж
On Forums: 10 years 11 months
Thanks: 1055 time(s)
Russian Federation


(IMG:style_emoticons/default/bang.gif) ВНЕЗАПНО
Go to the top of the page
  Insert nick Quick quote
+Quote Post
post Sep 8 2017, 18:57:42
Post #32

Волк без яблока
**************
Group: Металариец
Posts: 13,601
Releases: 108
From: Санкт-Петербург
On Forums: 14 years 6 months
Thanks: 15852 time(s)
Russian Federation


Да-да! Надо послушать ещё, пожалуй.

(IMG:https://avatarko.ru/img/avatar/7/pokemon_Slowpoke_6204.jpg)
Go to the top of the page
  Insert nick Quick quote
+Quote Post
post Sep 9 2017, 22:39:53
Post #33

Ледоруб
**************
Group: Металариец
Posts: 27,677
Releases: 0
From: Санкт-Петербург
On Forums: 11 years 7 months
Thanks: 9985 time(s)
Russian Federation


ЦИТАТА(Jahmephisto @ 14th April 2016 - 18:53:59) *
Кстати, а вот Arch Enemy 2014 "War Eternal" это Epic Melodic Death Metal?

Нет.
Go to the top of the page
  Insert nick Quick quote
+Quote Post
post Dec 4 2018, 17:15:53
Post #34

Добрый
**************
Group: Металариец
Posts: 4,758
Releases: 0
On Forums: 2 years 9 months
Thanks: 11634 time(s)
Russian Federation


151 mb/320 kbps
Register


Thanks:
Go to the top of the page
  Insert nick Quick quote
+Quote Post
post Nov 17 2019, 15:28:07
Post #35

Восемь Литров
********
Group: Металариец
Posts: 811
Releases: 2
On Forums: 10 years 6 months
Thanks: 351 time(s)
Poland


Ютуб сегодня подсунул с утра.Первый трек бодрый напомнил wintersun.Дальше какое-то невнятное пережевывание insomnium wintersun ensiferum.Вокалистка еще ревет весь альбом без эмоции будто робот.Слабоно.


Thanks:
(1) MeatWolf,
Go to the top of the page
  Insert nick Quick quote
+Quote Post
post Nov 7 2020, 23:51:37
Post #36

Трезвый мастер
Group Icon
Group: Moderation team
Posts: 4,327
Releases: 0
On Forums: 10 years 9 months
Thanks: 1963 time(s)
Russian Federation


Register


Go to the top of the page
  Insert nick Quick quote
+Quote Post

2 Pages V  < 1 2
Reply to this topicStart new topic
2 User(s) are reading this topic (2 Guests and 0 Anonymous Users)
0 Members:

 



- Lo-Fi Version Support form
Copyrights and abuse reports form
Time is now: 18th April 2021 - 01:29:18