Welcome Guest ( Log In | Register )

> Sinding - Fog Reach [demo] (2014), Atmospheric Black Metal
post Apr 17 2016, 18:40:52
Post #1

Правь статус, ####!111
**************
Group: Металариец
Posts: 3,497
Releases: 1811
From: Земля
On Forums: 4 years 2 months
Thanks: 9750 time(s)
Russian Federation


(IMG:https://metalarea.org/images/audiocovers/2016_Apr/acov_tid265959_thumb.jpg)

*Artist: Sinding
*Album: Fog Reach [demo]
*Year: 2014
*Genre: Atmospheric Black Metal
*Country: United States (IMG:https://metalarea.org/forum/style_images/flags/United%20States.png)
*Format: mp3@CBR320kbps
*Size: 21MB

Tracklist:
1. Fog Reach 09:02
******************************
Total playing time: 9:02



Technical info
(IMG:https://metalarea.org/images/spectrogram/2016_Apr/464362014a46a0535d872c5d313cfd4a.png)
Input File: sinding - fog reach - 01 fog reach.mp3
Channels : 2
Sample Rate : 44100
Precision : 16-bit
Duration : 00:09:02.98 = 23945374 samples = 40723.4 CDDA sectors
File Size : 21.9M
Bit Rate : 323k
Sample Encoding: MPEG audio (layer I, II or III)
Comments :
Title=fog reach
Artist=sinding
Album=fog reach
Tracknumber=1
Year=2014



Register


Вернуться к началу страницы
  Insert nick Quick quote
+Цитировать сообщение
 
Создать новую тему
Replies (1 - 2)
post Jan 13 2018, 08:39:31
Post #2

Going home. Flying high.
**************
Group: Металариец
Posts: 12,132
Releases: 0
From: The Land of Shadows
On Forums: 11 years 9 months
Thanks: 16596 time(s)
Russian Federation


from web (14 Mb)
Register


Thanks:
Вернуться к началу страницы
  Insert nick Quick quote
+Цитировать сообщение
post Jan 13 2018, 08:41:00
Post #3

Forever Underground
**************
Group: Металариец
Posts: 4,380
Releases: 0
On Forums: 3 years 1 month
Thanks: 3406 time(s)
Unknown


Free download on Bandcamp (IMG:style_emoticons/default/true_black.gif)
Вернуться к началу страницы
  Insert nick Quick quote
+Цитировать сообщение

ОтветитьСоздать новую тему
2 User(s) are reading this topic (2 Guests and 0 Anonymous Users)
0 Members:

 



- Lo-Fi Version Support form
Copyrights and abuse reports form
Time is now: 20th May 2018 - 18:47:15