Welcome Guest ( Log In | Register )

> Aborted - Retrogore (2016), Death Metal
post Apr 21 2016, 13:20:50
Post #1

Serial Uploader
Group Icon
Group: V.I.P
Posts: 33,137
Releases: 31421
From: Lithuania
On Forums: 10 years 4 months
Thanks: 359287 time(s)
Lithuania


(IMG:https://metalarea.org/images/audiocovers/2016_Apr/acov_tid266171_thumb.jpg)

*Artist: Aborted
*Album: Retrogore
*Year: 2016
*Genre: Death Metal
*Country: Belgium (IMG:https://metalarea.org/forum/style_images/flags/Belgium.png)
*Format: mp3@CBR320kbps
*Size: 99MB

Tracklist:
01. Dellamorte Dellamore 00:49
02. Retrogore 04:17
03. Cadaverous Collection 04:12
04. Whoremageddon 03:29
05. Termination Redux (Album Version) 03:27
06. Bit By Bit 04:03
07. Divine Impediment 04:18
08. Coven Of Ignorance 03:42
09. The Mephitic Conundrum 03:18
10. Forged In Decrepitude 02:41
11. From Beyond (The Grave) 04:22
12. In Avernus 04:36
******************************
Total playing time: 43:14

(IMG:https://metalarea.org/images/myspace.png)



Technical info
(IMG:https://metalarea.org/images/spectrogram/2016_Apr/3799487af1f249e4b0fc4a01fe3ccc60.png)
Input File: 02-aborted-retrogore-3c708f88.mp3
Channels : 2
Sample Rate : 44100
Precision : 16-bit
Duration : 00:04:17.86 = 11371406 samples = 19339.1 CDDA sectors
File Size : 10.3M
Bit Rate : 320k
Sample Encoding: MPEG audio (layer I, II or III)
Comments :
Title=Retrogore
Artist=Aborted
Album=Retrogore
Tracknumber=2/12
Year=2016
Genre=9



Register


Go to the top of the page
  Insert nick Quick quote
+Quote Post
9 Pages V  « < 7 8 9  
Start new topic
Replies (240 - 240)
post Aug 10 2018, 16:50:03
Post #241
BAN
Banned till
Nov 2 2018, 12:28:53




Go to the top of the page
  Insert nick Quick quote
+Quote Post

9 Pages V  « < 7 8 9
Reply to this topicStart new topic
1 User(s) are reading this topic (1 Guests and 0 Anonymous Users)
0 Members:

 



- Lo-Fi Version Support form
Copyrights and abuse reports form
Time is now: 20th October 2018 - 22:00:31