Welcome Guest ( Log In | Register )

> Pentacrostic - Emanation From The Grave (2014), Doom/Death Metal
post Apr 25 2016, 12:12:52
Post #1

Serial Uploader
Group Icon
Group: V.I.P
Posts: 32,940
Releases: 31233
From: Lithuania
On Forums: 10 years 2 months
Thanks: 357646 time(s)
Lithuania


(IMG:https://metalarea.org/images/audiocovers/2016_Apr/acov_tid266378_thumb.jpg)

*Artist: Pentacrostic
*Album: Emanation From The Grave
*Year: 2014
*Genre: Doom/Death Metal
*Country: Brazil (IMG:https://metalarea.org/forum/style_images/flags/Brazil.png)
*Format: mp3@VBR239kbps
*Size: 58MB

Tracklist:
01. Intro: Emanation From The Grave 01:00
02. Tormented Souls 05:26
03. In The Perpetual Sleep Of Mankind 04:24
04. Red Dragon 04:09
05. Theatre Of Redemption 04:34
06. Short Passage II 03:46
07. Instrumental 01:22
08. Estigma (Bonus Track) 02:47
09. Prisioneiro Do Desconhecido (Bonus Track) 04:12
10. Breve Passagem I (Bonus Track) 02:14
******************************
Total playing time: 33:54

(IMG:https://metalarea.org/images/myspace.png)


(IMG:https://metalarea.org/images/youtube.png)

Extended info
Scene CD-rip

(IMG:https://metalarea.org/images/spectrogram/2016_Apr/0cc020c6712b01881799b6488a63a3ab.png)
Input File: 02-pentacrostic-tormented_souls.mp3
Channels : 2
Sample Rate : 44100
Precision : 16-bit
Duration : 00:05:26.39 = 14393623 samples = 24479 CDDA sectors
File Size : 10.0M
Bit Rate : 246k
Sample Encoding: MPEG audio (layer I, II or III)
Comments :
Title=Tormented Souls
Artist=Pentacrostic
Album=Emanation from the Grave
Tracknumber=2/10
Year=2014-00-00
Genre=Death Metal


Register


Go to the top of the page
  Insert nick Quick quote
+Quote Post
 
Start new topic
Replies (1 - 4)
post Apr 25 2016, 21:30:40
Post #2

Шесть Литров
******
Group: Металариец
Posts: 551
Releases: 0
On Forums: 9 years 3 months
Thanks: 187 time(s)
Belarus


Если не жалко уши и личное время,можно прослушать этот мусор.Скажем так, - это совсем не Autumnia...И даже не близко.
Go to the top of the page
  Insert nick Quick quote
+Quote Post
post Apr 26 2016, 17:07:49
Post #3

ME[ta]LLOMAN
**************
Group: Металариец
Posts: 4,845
Releases: 3
From: Hughes'sRegion\Avdeyevka
On Forums: 12 years 4 months
Thanks: 1745 time(s)
Honduras




мелодетх какоэто (IMG:style_emoticons/default/21.gif)
Go to the top of the page
  Insert nick Quick quote
+Quote Post
post Aug 9 2018, 22:21:53
Post #4

Два Литра
**
Group: Завсегдатай
Posts: 139
Releases: 0
From: Madrid
On Forums: 9 years 7 months
Thanks: 19 time(s)
Mexico


Link is dead!
Can someone reup?
Thanks in advance
Go to the top of the page
  Insert nick Quick quote
+Quote Post
post Aug 9 2018, 22:26:24
Post #5

Восемь Литров
********
Group: Металариец
Posts: 886
Releases: 21
On Forums: 9 months 2 weeks
Thanks: 1622 time(s)
Unknown


VBR239kbps
Register


Thanks:
(1) kauyumari,
Go to the top of the page
  Insert nick Quick quote
+Quote Post

Reply to this topicStart new topic
1 User(s) are reading this topic (1 Guests and 0 Anonymous Users)
0 Members:

 



- Lo-Fi Version Support form
Copyrights and abuse reports form
Time is now: 20th August 2018 - 02:01:23