Welcome Guest ( Log In | Register )

> Spasmophiliaque - Second Spawn (2016), Technical/Progressive Death Metal
post Apr 30 2016, 02:55:59
Post #1

Serial Uploader
Group Icon
Group: V.I.P
Posts: 37,124
Releases: 35308
From: Lithuania
On Forums: 11 years 11 months
Thanks: 419369 time(s)
Lithuania


(IMG:http://metalarea.org/images/audiocovers/2016_Apr/acov_tid266629_thumb.jpg)

*Artist: Spasmophiliaque
*Album: Second Spawn
*Year: 2016
*Genre: Technical/Progressive Death Metal
*Country: France (IMG:http://metalarea.org/forum/style_images/flags/France.png)
*Format: mp3@CBR320kbps
*Size: 112MB

Tracklist:
01. Seventh Day
02. The Magnificent Seven
03. Second Spawn (A Second Chance II)
04. Nihilistic
05. Fifty Shots on Grey
06. Faith Is out There
07. Phoque ou biche
08. Mother's Bother (Electra's Complex)
09. 1984
10. Burlesque triplets
11. Djentlewoman
12. You're Not in Kansas Anymore
******************************
Total playing time: 46:09



Technical info
(IMG:http://metalarea.org/images/spectrogram/2016_Apr/259b29a4a2ee6ce7ae6aee5f4d6a5fa5.png)
Input File: 02. The Magnificent Seven.mp3
Channels : 2
Sample Rate : 44100
Precision : 16-bit
Duration : 00:03:08.70 = 8321802 samples = 14152.7 CDDA sectors
File Size : 7.95M
Bit Rate : 337k
Sample Encoding: MPEG audio (layer I, II or III)
Comments :
Title=The Magnificent Seven
Artist=Spasmophiliaque
Album=Second Spawn
Tracknumber=02/12
Year=2016



Register


Go to the top of the page
  Insert nick Quick quote
+Quote Post
 
Start new topic
Replies (1 - 3)
post Apr 30 2016, 13:32:44
Post #2

Аннигилятор пивА
Group Icon
Group: V.I.P
Posts: 52,360
Releases: 16550
From: Koenigsberg - TILZIT
On Forums: 14 years 3 days
Thanks: 365273 time(s)
Russian Federation


процитирую и в принципе все верно (IMG:style_emoticons/default/crazy.gif) Очередной one man band. Домашняя запись. Прогрессивного ноль без палки. Кустарный дэт без претензий ©


Thanks:
(1) Язва,
Go to the top of the page
  Insert nick Quick quote
+Quote Post
post Apr 30 2016, 13:50:35
Post #3

.
**************
Group: Металариец
Posts: 2,427
Releases: 1
On Forums: 11 years 11 months
Thanks: 6866 time(s)
Unknown




Thanks:
Go to the top of the page
  Insert nick Quick quote
+Quote Post
post Apr 30 2016, 21:12:14
Post #4

Три Литра
***
Group: Завсегдатай
Posts: 299
Releases: 54
From: Rostov-on-Don, Russia
On Forums: 13 years 6 months
Thanks: 580 time(s)
Russian Federation


QUOTE(aesteticvice @ Apr 30 2016, 15:32:44) *
процитирую и в принципе все верно (IMG:style_emoticons/default/crazy.gif) Очередной one man band. Домашняя запись. Прогрессивного ноль без палки. Кустарный дэт без претензий ©



Полностью согласен! Товарища этого мне советовали мол крутяк... но полностью альбом не присылали. Но по тому, что я услышал.... улыбнулся их претензии (IMG:style_emoticons/default/smile1.gif)
Go to the top of the page
  Insert nick Quick quote
+Quote Post

Reply to this topicStart new topic
1 User(s) are reading this topic (1 Guests and 0 Anonymous Users)
0 Members:

 



- Lo-Fi Version Support form
Copyrights and abuse reports form
Time is now: 31st May 2020 - 15:16:08