Welcome Guest ( Log In | Register )

> Lugubrum & Urfaust - Het Aalschuim Der Natie [split] (2015), Black Metal | Black Metal (D)(D)
post May 11 2016, 17:52:55
Post #1

а ты попал в даунтаун
**********
Group: Металариец
Posts: 1,417
Releases: 53
From: Москва
On Forums: 11 years 2 months
Thanks: 3885 time(s)
Russian Federation


(IMG:http://metalarea.org/images/audiocovers/2016_May/acov_tid267279_thumb.jpg)

*Artist: Lugubrum & Urfaust
*Album: Het Aalschuim Der Natie [split]
*Year: 2015
*Genre: Black Metal | Black Metal
*Country: Belgium (IMG:http://metalarea.org/forum/style_images/flags/Belgium.png) | Netherlands (IMG:http://metalarea.org/forum/style_images/flags/Netherlands.png)
*Format: mp3@CBR320kbps
*Size: 24MB

Tracklist:
Lugubrum:
01. Kapitaalschuim 04:05
Urfaust:
02. Zelfkastijder 05:56
******************************
Total playing time: 10:01

(IMG:http://metalarea.org/images/youtube.png)
(IMG:http://metalarea.org/images/youtube.png)

Technical info
(IMG:http://metalarea.org/images/spectrogram/2016_May/4fc4fd86db361ef23d145ac7090e1923.png)
Input File: 01. Lugubrum - Kapitaalschuim.mp3
Channels : 2
Sample Rate : 44100
Precision : 16-bit
Duration : 00:04:05.60 = 10831092 samples = 18420.2 CDDA sectors
File Size : 9.92M
Bit Rate : 323k
Sample Encoding: MPEG audio (layer I, II or III)
Comments :
Title=Kapitaalschuim
Artist=Lugubrum
Album=Het Aalschuim Der Natie
Tracknumber=01/02
Year=2015
Genre=Black Metal
Discnumber=1/1



Register


Go to the top of the page
  Insert nick Quick quote
+Quote Post
 
Start new topic
Replies (1 - 2)
post May 11 2016, 19:32:58
Post #2

the faceless one
Group Icon
Group: S-moderation team
Posts: 9,332
Releases: 1926
On Forums: 11 years 10 months
Thanks: 115185 time(s)
Russian Federation


Прямой линк на небеса -

Register


Go to the top of the page
  Insert nick Quick quote
+Quote Post
post Jun 15 2017, 07:38:46
Post #3

antithesis
**************
Group: Металариец
Posts: 3,115
Releases: 33
From: VRN
On Forums: 10 years 1 month
Thanks: 1927 time(s)
Russian Federation


reuploaded

Register


Register


Go to the top of the page
  Insert nick Quick quote
+Quote Post

Reply to this topicStart new topic
1 User(s) are reading this topic (1 Guests and 0 Anonymous Users)
0 Members:

 



- Lo-Fi Version Support form
Copyrights and abuse reports form
Time is now: 3rd July 2020 - 17:24:48