Welcome Guest ( Log In | Register )

> Phantom Glue - 776 (2016), Psychedelic Sludge
post May 13 2016, 18:49:51
Post #1

Аннигилятор пивА
Group Icon
Group: V.I.P
Posts: 52,360
Releases: 16551
From: Koenigsberg - TILZIT
On Forums: 13 years 8 months
Thanks: 364128 time(s)
Russian Federation


(IMG:https://metalarea.org/images/audiocovers/2016_May/acov_tid267418_thumb.jpg)

*Artist: Phantom Glue
*Album: 776
*Year: 2016
*Genre: Psychedelic Sludge
*Country: United States (IMG:https://metalarea.org/forum/style_images/flags/United%20States.png)
*Format: mp3@CBR320kbps
*Size: 86MB

Tracklist:
1. Ion Cloud 03:24
2. Hundred Hand 03:56
3. Somatic 05:13
4. A Worker-less Mill 05:14
5. Suttungr 07:13
6. Hocheims War 04:56
7. Gog Is Dead 06:09
******************************
Total playing time: 36:05




Extended info
ЖЖЖырненько плющат психоделом


Technical info
(IMG:https://metalarea.org/images/spectrogram/2016_May/8662de5c20de91c0f8edd11fa3e52331.png)
Input File: 01 Ion Cloud.mp3
Channels : 2
Sample Rate : 44100
Precision : 16-bit
Duration : 00:03:23.70 = 8983082 samples = 15277.4 CDDA sectors
File Size : 8.15M
Bit Rate : 320k
Sample Encoding: MPEG audio (layer I, II or III)
Comments :
Title=Ion Cloud
Artist=Phantom Glue
Album=776
Tracknumber=1/7
Year=2016



Register


Go to the top of the page
  Insert nick Quick quote
+Quote Post
 
Start new topic
Replies (1 - 2)
post May 13 2016, 20:55:46
Post #2

Аннигилятор пивА
Group Icon
Group: V.I.P
Posts: 52,360
Releases: 16551
From: Koenigsberg - TILZIT
On Forums: 13 years 8 months
Thanks: 364128 time(s)
Russian Federation


зеркало
Register
Go to the top of the page
  Insert nick Quick quote
+Quote Post
post Jan 18 2020, 01:46:37
Post #3

Русский
*****
Group: Металариец
Posts: 418
Releases: 0
From: Москва
On Forums: 13 years 5 months
Thanks: 177 time(s)
Russian Federation


на бэндкэмп бесплатно лежит всё
Go to the top of the page
  Insert nick Quick quote
+Quote Post

Reply to this topicStart new topic
1 User(s) are reading this topic (1 Guests and 0 Anonymous Users)
0 Members:

 



- Lo-Fi Version Support form
Copyrights and abuse reports form
Time is now: 17th February 2020 - 05:48:02