Welcome Guest ( Log In | Register )

> Fyrnask - Fórn (2016), Black Metal
post May 14 2016, 14:21:23
Post #1

Serial Uploader
Group Icon
Group: V.I.P
Posts: 37,112
Releases: 35296
From: Lithuania
On Forums: 11 years 9 months
Thanks: 418068 time(s)
Lithuania


(IMG:https://metalarea.org/images/audiocovers/2016_May/acov_tid267468_thumb.jpg)

*Artist: Fyrnask
*Album: Fórn
*Year: 2016
*Genre: Black Metal
*Country: Germany (IMG:https://metalarea.org/forum/style_images/flags/Germany.png)
*Format: mp3@CBR320kbps
*Size: 125MB

Tracklist:
01. Forbænir 04:59
02. Draugr 07:48
03. Niðrdráttr 09:05
04. Vi Er Dømt 02:35
05. Agnis Offer 04:00
06. Urðmaðr 00:56
07. Blotán 06:12
08. Fornsǫngvar 01:56
09. Kenoma 07:54
10. Havets Kjele 05:07
11. Vitran (Bonus Track) 04:00
******************************
Total playing time: 54:32

(IMG:https://metalarea.org/images/myspace.png)



Technical info
(IMG:https://metalarea.org/images/spectrogram/2016_May/dedf89e2643c927af874882226d83650.png)
Input File: 05. Agnis Offer.mp3
Channels : 2
Sample Rate : 44100
Precision : 16-bit
Duration : 00:04:00.33 = 10598377 samples = 18024.5 CDDA sectors
File Size : 9.62M
Bit Rate : 320k
Sample Encoding: MPEG audio (layer I, II or III)
Comments :
Title=Agnis Offer
Artist=Fyrnask
Album=FГіrn
Tracknumber=5
Year=2016



Register


Go to the top of the page
  Insert nick Quick quote
+Quote Post
 
Start new topic
Replies (1 - 6)
post May 14 2016, 15:28:44
Post #2

Peste noire
**************
Group: Металариец
Posts: 4,843
Releases: 7
From: http://gjoell.org/
On Forums: 13 years 10 months
Thanks: 1431 time(s)
Afghanistan


О, а вот это хорошие немцы.
Отдельно радуюсь тому, что они свалили от мутных китайцев с ТОТ на хороший лейбл.


Go to the top of the page
  Insert nick Quick quote
+Quote Post
post May 14 2016, 15:54:47
Post #3

Сектант технодро4чер
**************
Group: Металариец
Posts: 5,517
Releases: 143
From: Тимчасово окупована територія
On Forums: 11 years 7 months
Thanks: 5799 time(s)
Ukraine


Register


Go to the top of the page
  Insert nick Quick quote
+Quote Post
post May 23 2016, 09:57:51
Post #4

Два Литра
**
Group: Завсегдатай
Posts: 114
Releases: 0
From: Moscow
On Forums: 13 years 1 month
Thanks: 35 time(s)
Russian Federation


QUOTE(Algis @ May 14 2016, 17:28:44) *
О, а вот это хорошие немцы.
Отдельно радуюсь тому, что они свалили от мутных китайцев с ТОТ на хороший лейбл.


А где они теперь? На Ván Records? Я, честно говоря, раньше о таком лейбле и не слышал.
Go to the top of the page
  Insert nick Quick quote
+Quote Post
post May 23 2016, 15:43:26
Post #5

Peste noire
**************
Group: Металариец
Posts: 4,843
Releases: 7
From: http://gjoell.org/
On Forums: 13 years 10 months
Thanks: 1431 time(s)
Afghanistan


ЦИТАТА(Unorthodox @ May 23 2016, 08:57:51) *
На Ván Records? Я, честно говоря, раньше о таком лейбле и не слышал.
Очень зря. У них весь Urfaust, King Dude, The Devil's Blood, Castle - всё у них.
Go to the top of the page
  Insert nick Quick quote
+Quote Post
post Jun 25 2016, 13:13:13
Post #6

Black is beautiful
***********
Group: Металариец
Posts: 1,770
Releases: 4
On Forums: 8 years 1 month
Thanks: 350 time(s)
Unknown


Wonderful Occult Black Metal!

(IMG:style_emoticons/default/true_black.gif) (IMG:style_emoticons/default/true_black.gif) (IMG:style_emoticons/default/true_black.gif)
Go to the top of the page
  Insert nick Quick quote
+Quote Post
post Aug 26 2016, 11:19:40
Post #7

алкодзэн, шапка из фольги и пропитая троица
**************
Group: Металариец
Posts: 3,537
Releases: 0
On Forums: 4 years 2 months
Thanks: 2213 time(s)
Unknown


Альбом бы вышел на все сто, если бы не чистоголосые замедления. хотелось бы проникнуться в это, дааа типа глубокая атмосфера и всё такое, но..
зря они так. мистика сливается в нудятину.
в итоге атмосфера запорола сама себя. своей нелаконичностью и ненужным драматизмом.
жаль.
Go to the top of the page
  Insert nick Quick quote
+Quote Post

Reply to this topicStart new topic
2 User(s) are reading this topic (2 Guests and 0 Anonymous Users)
0 Members:

 



- Lo-Fi Version Support form
Copyrights and abuse reports form
Time is now: 1st April 2020 - 09:41:19