Welcome Guest ( Log In | Register )

> Rust - Raw Shredding Death (2016), Black/Thrash Metal
post May 16 2016, 10:24:12
Post #1

Маньяк
**********
Group: Металариец
Posts: 1,305
Releases: 1008
From: Prešov
On Forums: 4 years 3 months
Thanks: 23298 time(s)
Slovakia


(IMG:http://metalarea.org/images/audiocovers/2016_May/acov_tid267555_thumb.jpg)

*Artist: Rust
*Album: Raw Shredding Death
*Year: 2016
*Genre: Black/Thrash Metal
*Country: Sweden (IMG:http://metalarea.org/forum/style_images/flags/Sweden.png)
*Format: mp3@CBR320kbps
*Size: 66MB

Tracklist:
1. Sweeping Wings of Wrath 03:50
2. Raw Shredding Death 04:48
3. Desolate Flames 04:58
4. The Dead Towers 05:00
5. Disrobe the Throne 03:55
6. The Well 04:43
******************************
Total playing time: 27:14



Extended info
KVLT! Total Headbash Black Metal Stomp!


Technical info
(IMG:http://metalarea.org/images/spectrogram/2016_May/ec572a8fa3a411d2c9cf899fe288f985.png)
Input File: 03. Desolate Flames.mp3
Channels : 2
Sample Rate : 44100
Precision : 16-bit
Duration : 00:04:58.32 = 13155912 samples = 22374 CDDA sectors
File Size : 12.1M
Bit Rate : 323k
Sample Encoding: MPEG audio (layer I, II or III)
Comments :
Title=Desolate Flames
Artist=Rust
Album=Raw Shredding Death
Tracknumber=03/06
Year=2016
Genre=Black / Thrash Metal



Register


Go to the top of the page
  Insert nick Quick quote
+Quote Post
 
Start new topic
Replies (1 - 7)
post May 16 2016, 13:56:19
Post #2

filed under desecration
Group Icon
Group: S-moderation team
Posts: 8,674
Releases: 1643
On Forums: 9 years 11 months
Thanks: 98337 time(s)
Unknown


Зеркало на небеса без ограничений -

Register


Go to the top of the page
  Insert nick Quick quote
+Quote Post
post May 23 2016, 13:10:31
Post #3

\m/
Group Icon
Group: S-moderation team
Posts: 7,433
Releases: 19
From: Петропавловск-Камчатский
On Forums: 9 years 1 month
Thanks: 6675 time(s)
Russian Federation


Хорошо пошло. Те, кто не равнодушен к Aura Noir - Black Thrash Attack/Deep Tracts of Hell, этот релиз рекомендую к прослушиванию. (IMG:style_emoticons/default/metaler.gif)
Go to the top of the page
  Insert nick Quick quote
+Quote Post
post Sep 21 2016, 22:38:31
Post #4

Самый Тихий Час
**************
Group: Металариец
Posts: 5,463
Releases: 0
On Forums: 8 years 8 months
Thanks: 2353 time(s)
Unknown


Очень правильный стафф. Холодный, в меру колбасный, в меру гнетущий, в меру дикий...


Thanks:
Go to the top of the page
  Insert nick Quick quote
+Quote Post
post Nov 10 2016, 19:26:08
Post #5
BAN
Banned till
Aug 5 2018, 14:02:28



Ничего не изменилось со времен прошлого полноформата — чернотрэш в лучших мерзотных традициях — дьявольски привлекательно, андерграундно приверженно и по настоящему тру башкотрясно. Всем фанатам как смеси черноты и трэша, так и олдскульного трэша стронгли рикоммендед.


Thanks:
Go to the top of the page
  Insert nick Quick quote
+Quote Post
post Mar 28 2017, 02:40:51
Post #6

aggresive exumator!
********
Group: Металариец
Posts: 891
Releases: 0
On Forums: 6 years 9 months
Thanks: 20 time(s)
Unknown


reupload please!!
Go to the top of the page
  Insert nick Quick quote
+Quote Post
post Jul 12 2018, 13:57:21
Post #7

Group: Подсевший
Posts: 13
Releases: 1
On Forums: 10 years 11 months
Thanks: 8 time(s)
Poland


Can someone reupload ?
Go to the top of the page
  Insert nick Quick quote
+Quote Post
post Jul 12 2018, 21:25:10
Post #8

Мегаманьяк
***********
Group: Металариец
Posts: 1,987
Releases: 0
On Forums: 3 years 2 months
Thanks: 1759 time(s)
Russian Federation


From the web, 320
Register


Thanks:
(1) Rybson,
Go to the top of the page
  Insert nick Quick quote
+Quote Post

Reply to this topicStart new topic
2 User(s) are reading this topic (2 Guests and 0 Anonymous Users)
0 Members:

 



- Lo-Fi Version Support form
Copyrights and abuse reports form
Time is now: 17th July 2018 - 18:01:58