Welcome Guest ( Log In | Register )

> Toska - Ode To The Author [ep] (2016), Instrumental/Progressive Metal
post May 17 2016, 16:01:20
Post #1

Serial Uploader
Group Icon
Group: V.I.P
Posts: 33,290
Releases: 31566
From: Lithuania
On Forums: 10 years 5 months
Thanks: 360627 time(s)
Lithuania


(IMG:https://metalarea.org/images/audiocovers/2016_May/acov_tid267625_thumb.jpg)

*Artist: Toska
*Album: Ode To The Author [ep]
*Year: 2016
*Genre: Instrumental/Progressive Metal
*Country: United Kingdom (IMG:https://metalarea.org/forum/style_images/flags/United%20Kingdom.png)
*Format: mp3@CBR320kbps
*Size: 78MB

Tracklist:
01. Chalk Teeth 05:47
02. Chasm 06:37
03. Phoneme 01:50
04. Illumo 08:06
05. Anthropocene 01:22
06. Infantile 10:11
******************************
Total playing time: 33:53




(IMG:https://metalarea.org/images/youtube.png)

Technical info
(IMG:https://metalarea.org/images/spectrogram/2016_May/2bc268f9c6846f71714cd84ab4c8c805.png)
Input File: 01. Chalk Teeth.mp3
Channels : 2
Sample Rate : 44100
Precision : 16-bit
Duration : 00:05:47.10 = 15306890 samples = 26032.1 CDDA sectors
File Size : 14.0M
Bit Rate : 323k
Sample Encoding: MPEG audio (layer I, II or III)
Comments :
Title=Chalk Teeth
Artist=Toska
Album=Ode to the Author
Tracknumber=1
Year=2016



Register


Go to the top of the page
  Insert nick Quick quote
+Quote Post
 
Start new topic
Replies (1 - 1)
post Feb 14 2018, 22:18:37
Post #2

Правь статус, ####!111
**************
Group: Металариец
Posts: 3,340
Releases: 9
From: Москва и МО
On Forums: 12 years 4 months
Thanks: 818 time(s)
Russian Federation


Ошибка в нейминге у группы. Правильное название - тоска зеленая. Хотя кому-то очень катит, был удивлен.
Go to the top of the page
  Insert nick Quick quote
+Quote Post

Reply to this topicStart new topic
1 User(s) are reading this topic (1 Guests and 0 Anonymous Users)
0 Members:

 



- Lo-Fi Version Support form
Copyrights and abuse reports form
Time is now: 18th November 2018 - 08:39:58