Welcome Guest ( Log In | Register )

> Gutter Instinct - Age Of The Fanatics (2016), Death Metal
post May 26 2016, 13:53:24
Post #1

Serial Uploader
Group Icon
Group: V.I.P
Posts: 32,938
Releases: 31231
From: Lithuania
On Forums: 10 years 2 months
Thanks: 357595 time(s)
Lithuania


(IMG:http://metalarea.org/images/audiocovers/2016_May/acov_tid268106_thumb.jpg)

*Artist: Gutter Instinct
*Album: Age Of The Fanatics
*Year: 2016
*Genre: Death Metal
*Country: Sweden (IMG:http://metalarea.org/forum/style_images/flags/Sweden.png)
*Format: mp3@CBR320kbps
*Size: 109MB

Tracklist:
01. Leper Beholder 04:43
02. Age Of The Fanatics 05:32
03. Bloodstorms 05:08
04. No Place For The Cross 01:12
05. Bridge Of Broken Bones 05:52
06. An Ending In Fire 05:42
07. Death Cult 03:40
08. Counter-Culture 04:54
09. Faith Junkies 03:24
10. Exile 05:52
******************************
Total playing time: 45:59





Technical info
(IMG:http://metalarea.org/images/spectrogram/2016_May/a909f44fa8bc6f43fedcee4e4d1c9c31.png)
Input File: 03-gutter_instinct-bloodstorms-4bf0851b.mp3
Channels : 2
Sample Rate : 44100
Precision : 16-bit
Duration : 00:05:08.33 = 13597309 samples = 23124.7 CDDA sectors
File Size : 12.6M
Bit Rate : 328k
Sample Encoding: MPEG audio (layer I, II or III)
Comments :
Title=Bloodstorms
Artist=Gutter Instinct
Album=Age of the Fanatics
Tracknumber=3/10
Year=2016
Genre=9



Register


Go to the top of the page
  Insert nick Quick quote
+Quote Post
 
Start new topic
Replies (1 - 4)
post May 28 2016, 09:46:42
Post #2

Правь статус, ####!111
**************
Group: Металариец
Posts: 3,274
Releases: 9
From: Москва и МО
On Forums: 12 years 1 month
Thanks: 799 time(s)
Russian Federation


Судан? Полагаю, что ошибка, страна начинается на ту же букву, но Sweden, кстати по превью это сразу очевидно - шведятина так и прет )
Go to the top of the page
  Insert nick Quick quote
+Quote Post
post May 28 2016, 10:37:51
Post #3

Три Литра
***
Group: Завсегдатай
Posts: 257
Releases: 0
On Forums: 7 years 11 months
Thanks: 38 time(s)
Russian Federation


это суданцы понаехавшие в швецию... (IMG:style_emoticons/default/6.gif)
Go to the top of the page
  Insert nick Quick quote
+Quote Post
post Sep 17 2017, 21:23:19
Post #4

Правь статус, ####!111
**************
Group: Металариец
Posts: 6,050
Releases: 164
From: URUGUAY
On Forums: 11 years 10 months
Thanks: 14547 time(s)
Uruguay


320
Register


Thanks:
Go to the top of the page
  Insert nick Quick quote
+Quote Post
post Jun 13 2018, 16:36:36
Post #5

Литр
*
Group: Подсевший
Posts: 90
Releases: 2
From: Lysva Perm Area
On Forums: 8 years 8 months
Thanks: 78 time(s)
Russian Federation


лося плиз
Go to the top of the page
  Insert nick Quick quote
+Quote Post

Reply to this topicStart new topic
1 User(s) are reading this topic (1 Guests and 0 Anonymous Users)
0 Members:

 



- Lo-Fi Version Support form
Copyrights and abuse reports form
Time is now: 18th August 2018 - 13:45:23