Welcome Guest ( Log In | Register )

> Dehuman Reign - Ascending From Below (2016), Death Metal
post May 26 2016, 15:24:32
Post #1

Serial Uploader
Group Icon
Group: V.I.P
Posts: 38,070
Releases: 36232
From: Lithuania
On Forums: 13 years 7 months
Thanks: 443494 time(s)
Lithuania


(IMG:http://metalarea.org/images/audiocovers/2016_May/acov_tid268120_thumb.jpg)

*Artist: Dehuman Reign
*Album: Ascending From Below
*Year: 2016
*Genre: Death Metal
*Country: Germany (IMG:http://metalarea.org/forum/style_images/flags/Germany.png)
*Format: mp3@CBR320kbps
*Size: 108MB

Tracklist:
01. The Ascension 01:46
02. Apply Salt To The Open Wound 03:54
03. Recipients Of The Abominable 04:02
04. Minds Of The Insane 04:18
05. Drown In Agony 04:45
06. Garden Of Decay 03:23
07. Articulating The Unspeakable 02:52
08. Grey Entity 04:30
09. Heart Of The Hypocrite 04:24
10. Stench Of The Infected 04:46
11. Mental Hibernation 05:35
******************************
Total playing time: 44:15




Technical info
(IMG:http://metalarea.org/images/spectrogram/2016_May/c877bf01e61774b5c44672c247b5ba3e.png)
Input File: 02. Apply Salt to the Open Wound.mp3
Channels : 2
Sample Rate : 44100
Precision : 16-bit
Duration : 00:03:54.34 = 10334526 samples = 17575.7 CDDA sectors
File Size : 10.0M
Bit Rate : 342k
Sample Encoding: MPEG audio (layer I, II or III)
Comments :
Title=Apply Salt to the Open Wound
Artist=Dehuman Reign
Album=Ascending from Below
Tracknumber=2/11
Year=2016



Register

Register


Go to the top of the page
  Insert nick Quick quote
+Quote Post
 
Start new topic
Replies (1 - 6)
post May 26 2016, 16:21:24
Post #2

the faceless one
Group Icon
Group: S-moderation team
Posts: 9,520
Releases: 1968
On Forums: 13 years 5 months
Thanks: 120225 time(s)
Russian Federation


Added links by Samaritianin
Go to the top of the page
  Insert nick Quick quote
+Quote Post
post May 29 2016, 07:43:08
Post #3

MDM-Thrash Metal
**************
Group: Металариец
Posts: 10,788
Releases: 1359
From: Одесса
On Forums: 14 years 5 months
Thanks: 32794 time(s)
Ukraine




Thanks:
(1) KVRT,
Go to the top of the page
  Insert nick Quick quote
+Quote Post
post May 29 2016, 17:42:07
Post #4

Правь статус, ####!111
**************
Group: Металариец
Posts: 49,761
Releases: 901
On Forums: 12 years 7 months
Thanks: 45969 time(s)
Russian Federation


Сэр, это ты на аве? (IMG:style_emoticons/default/15.gif)
Go to the top of the page
  Insert nick Quick quote
+Quote Post
post Jul 4 2016, 05:40:04
Post #5

Crush! Kill! Destroy!
**************
Group: Металариец
Posts: 5,712
Releases: 15
From: Kaliningrad
On Forums: 14 years 2 months
Thanks: 5420 time(s)
Russian Federation


Самый ЖЫР начинается со второй половины альбома!
Go to the top of the page
  Insert nick Quick quote
+Quote Post
post Jul 8 2016, 11:36:20
Post #6

Empty Words
**************
Group: Металариец
Posts: 2,114
Releases: 13
From: Москва
On Forums: 12 years 5 months
Thanks: 2806 time(s)
Russian Federation


Динамичный и забойный дэт с налетом олдскульности. Во много напоминает Vader времен "De Profundis" и "Black To The Blind". Послушал 2 или 3 раза с перерывами, но как-то не зацепило: вроде грохочет, а явного кайфа нет. Нехай отлежится пока.
Go to the top of the page
  Insert nick Quick quote
+Quote Post
post Nov 14 2021, 19:48:01
Post #7

Death and Black Metal Holocaust
**************
Group: Металариец
Posts: 2,860
Releases: 78
From: Technical Death из 90-х
On Forums: 11 years 6 months
Thanks: 7045 time(s)
Unknown


Register


(IMG:style_emoticons/default/metaler.gif)


Thanks:
(2) wreak, Xtohar,
Go to the top of the page
  Insert nick Quick quote
+Quote Post

Reply to this topicStart new topic
2 User(s) are reading this topic (2 Guests and 0 Anonymous Users)
0 Members:

 



- Lo-Fi Version Support form
Copyrights and abuse reports form
Time is now: 24th January 2022 - 16:02:18