Welcome Guest ( Log In | Register )

> Master's Hammer - Formulæ (2016), Avant-Garde/Black Metal
post May 29 2016, 13:44:41
Post #1

Serial Uploader
Group Icon
Group: V.I.P
Posts: 33,278
Releases: 31556
From: Lithuania
On Forums: 10 years 5 months
Thanks: 360412 time(s)
Lithuania


(IMG:http://metalarea.org/images/audiocovers/2016_May/acov_tid268294_thumb.jpg)

*Artist: Master's Hammer
*Album: Formulæ
*Year: 2016
*Genre: Avant-Garde/Black Metal
*Country: Czech Republic (IMG:http://metalarea.org/forum/style_images/flags/Czech%20Republic.png)
*Format: mp3@CBR320kbps
*Size: 133MB

Tracklist:
01. Den Nicoty
02. Maso Z Kosmu
03. Votava
04. Shy Gecko
05. Arachnid
06. Všem Jebne
07. Biologické Hodiny
08. Phenakistoscope
09. DMT
10. Podburka
11. Jazyky
12. Durga Chce Pít
13. Rurální Dobro
14. Ukolébavka
15. Aya
******************************
Total playing time: 55:56



Technical info
(IMG:http://metalarea.org/images/spectrogram/2016_May/41e506c58e2519061d0787ff7d004641.png)
Input File: 02. Maso Z Kosmu.mp3
Channels : 2
Sample Rate : 44100
Precision : 16-bit
Duration : 00:04:13.62 = 11184774 samples = 19021.7 CDDA sectors
File Size : 10.4M
Bit Rate : 329k
Sample Encoding: MPEG audio (layer I, II or III)
Comments :
Title=Maso Z Kosmu
Artist=Master's Hammer
Album=Formulæ
Tracknumber=02/15
Year=2016



Register


Go to the top of the page
  Insert nick Quick quote
+Quote Post
2 Pages V  < 1 2  
Start new topic
Replies (30 - 36)
post Jun 12 2016, 21:56:33
Post #31

Три Литра
***
Group: Завсегдатай
Posts: 215
Releases: 0
From: Мордор
On Forums: 3 years 6 months
Thanks: 67 time(s)
Russian Federation


Обложка понравилась, смешная
Go to the top of the page
  Insert nick Quick quote
+Quote Post
post Jun 23 2016, 01:01:20
Post #32

Два Литра
**
Group: Завсегдатай
Posts: 120
Releases: 0
On Forums: 12 years 1 month
Thanks: 39 time(s)
Russian Federation


Я ценитель творчества и вокала Томаса Кохута aka Necrocock , кот. тоже всегда есть в составе.
Так вот, при всей раммштайновости и тяги к прикольным эксперементам, в этом альбоме чегой-то очень мало его фальцета, и вообще практически нет чистого голоса.
В отличие от предыдущего полноформатника, где большинство припевов исполнены им.
Франта кривляется довольно разнообразно, но мне не хватило именно чистого. Лишь изредка Некрокок подвывает свое Уууууууууу!


Thanks:
(1) smes,
Go to the top of the page
  Insert nick Quick quote
+Quote Post
post Jul 26 2016, 01:51:42
Post #33

Правь статус, ####!111
**************
Group: Металариец
Posts: 3,338
Releases: 9
From: Москва и МО
On Forums: 12 years 4 months
Thanks: 818 time(s)
Russian Federation


Для Master's Hammer должен быть особый какой-то настрой. Я пока настрой для этого альбома не поймал.
Go to the top of the page
  Insert nick Quick quote
+Quote Post
post Aug 15 2017, 19:03:01
Post #34

Маньяк
**********
Group: Металариец
Posts: 1,092
Releases: 10
From: Нижегородская губерния
On Forums: 9 years 2 months
Thanks: 2040 time(s)
Russian Federation


Register


Go to the top of the page
  Insert nick Quick quote
+Quote Post
post Aug 10 2018, 08:31:27
Post #35

Четыре Литра
****
Group: Металариец
Posts: 308
Releases: 0
From: Poland
On Forums: 1 year 11 months
Thanks: 84 time(s)
Poland


Reupload please!
Go to the top of the page
  Insert nick Quick quote
+Quote Post
post Aug 10 2018, 08:44:14
Post #36

Правь статус, ####!111
**************
Group: Металариец
Posts: 34,440
Releases: 500
On Forums: 9 years 5 months
Thanks: 26593 time(s)
Russian Federation


@320

Register


Go to the top of the page
  Insert nick Quick quote
+Quote Post
post Sep 23 2018, 11:33:34
Post #37

Правь статус, ####!111
**************
Group: Металариец
Posts: 3,338
Releases: 9
From: Москва и МО
On Forums: 12 years 4 months
Thanks: 818 time(s)
Russian Federation


В итоге мне показалось слабее предшествующих альбомов, увы. Чего-то не хватило.
Go to the top of the page
  Insert nick Quick quote
+Quote Post

2 Pages V  < 1 2
Reply to this topicStart new topic
2 User(s) are reading this topic (2 Guests and 0 Anonymous Users)
0 Members:

 



- Lo-Fi Version Support form
Copyrights and abuse reports form
Time is now: 14th November 2018 - 01:09:17