Welcome Guest ( Log In | Register )

> Mephistofeles - Whore (2016), Psychedelic Stoner Doom Metal
post May 30 2016, 11:14:19
Post #1

Правь статус, ####!111
**************
Group: Металариец
Posts: 45,122
Releases: 695
On Forums: 10 years 8 months
Thanks: 36812 time(s)
Russian Federation


(IMG:http://metalarea.org/images/audiocovers/2016_May/acov_tid268350_thumb.jpg)

*Artist: Mephistofeles
*Album: Whore
*Year: 2016
*Genre: Psychedelic Stoner Doom Metal
*Country: Argentina (IMG:http://metalarea.org/forum/style_images/flags/Argentina.png)
*Format: mp3@CBR320kbps
*Size: 81MB

Tracklist:
1. Black Sunday 06:37
2. Whore 04:46
3. Kill Yourself 03:37
4. Drug Addict 05:20
5. Evil Beauty 05:26
6. Wizard Of Meth 04:43
7. Cursed To Death 03:33
******************************
Total playing time: 34:02




Technical info
(IMG:http://metalarea.org/images/spectrogram/2016_May/53d08ad4e7e9fb57d4bdf847576fefe1.png)
Input File: Mephistofeles - WHORE (full album) - 04 Drug Addict.mp3
Channels : 2
Sample Rate : 44100
Precision : 16-bit
Duration : 00:05:21.05 = 14158217 samples = 24078.6 CDDA sectors
File Size : 13.0M
Bit Rate : 324k
Sample Encoding: MPEG audio (layer I, II or III)
Comments :
Title=Drug Addict
Artist=Mephistofeles
Album=WHORE (full album)
Tracknumber=4
Year=2016



Register


Go to the top of the page
  Insert nick Quick quote
+Quote Post
 
Start new topic
Replies (1 - 8)
post May 30 2016, 19:21:59
Post #2

Правь статус, ####!111
**************
Group: Металариец
Posts: 45,122
Releases: 695
On Forums: 10 years 8 months
Thanks: 36812 time(s)
Russian Federation


Знатнющий стафф, тотально инспирированный ELECTRIC WIZARD.
Go to the top of the page
  Insert nick Quick quote
+Quote Post
post Mar 6 2017, 19:41:45
Post #3

Going home. Flying high.
**************
Group: Металариец
Posts: 12,966
Releases: 0
From: The Land of Shadows
On Forums: 13 years 6 months
Thanks: 22844 time(s)
Russian Federation


версия с бонусами:
Register

+ 2 bonus tracks: "Heroin" & "White Butterfly"


Thanks:
Go to the top of the page
  Insert nick Quick quote
+Quote Post
post Dec 25 2017, 08:52:08
Post #4

Семь Литров
*******
Group: Металариец
Posts: 760
Releases: 0
On Forums: 12 years 4 months
Thanks: 312 time(s)
Belarus


Today you can purchase everything for FREE in our bandcamp.

Go to the top of the page
  Insert nick Quick quote
+Quote Post
post Dec 21 2019, 15:17:16
Post #5

Шесть Литров
******
Group: Металариец
Posts: 539
Releases: 1
From: АР Крым, Симферополь
On Forums: 11 years 10 months
Thanks: 239 time(s)
Russian Federation


Вчера у этих чумовых аргентинцев вышел новый (уже 3-ий по счету) полноформатник. (IMG:style_emoticons/default/m0114.gif) (IMG:style_emoticons/default/metaler.gif) (IMG:style_emoticons/default/20.gif)





Thanks:
Go to the top of the page
  Insert nick Quick quote
+Quote Post
post Dec 21 2019, 17:56:49
Post #6

Шесть Литров
******
Group: Металариец
Posts: 645
Releases: 0
On Forums: 6 years 6 months
Thanks: 464 time(s)
Australia


Interesting at least for a couple of spins. Thanks.
Go to the top of the page
  Insert nick Quick quote
+Quote Post
post Dec 21 2019, 18:16:14
Post #7

Правь статус, ####!111
**************
Group: Металариец
Posts: 45,122
Releases: 695
On Forums: 10 years 8 months
Thanks: 36812 time(s)
Russian Federation


ЦИТАТА(biroutios @ Dec 21 2019, 19:56:49) *
Interesting at least for a couple of spins. Thanks.


Keep on listenin this fire from the release date.

Real raw shit
Go to the top of the page
  Insert nick Quick quote
+Quote Post
post Dec 21 2019, 18:40:53
Post #8

Правь статус, ####!111
**************
Group: Металариец
Posts: 4,529
Releases: 0
From: Одесса
On Forums: 11 years 11 months
Thanks: 2998 time(s)
Unknown


It's good but maybe too much inspired by EW and Sab'. But very good in the style.


Thanks:
(1) biroutios,
Go to the top of the page
  Insert nick Quick quote
+Quote Post
post Dec 21 2019, 18:52:09
Post #9

Правь статус, ####!111
**************
Group: Металариец
Posts: 45,122
Releases: 695
On Forums: 10 years 8 months
Thanks: 36812 time(s)
Russian Federation


ЦИТАТА(babanguida @ Dec 21 2019, 20:40:53) *
It's good but maybe too much inspired by EW and Sab'. But very good in the style.



Nobody's perfect
Go to the top of the page
  Insert nick Quick quote
+Quote Post

Reply to this topicStart new topic
2 User(s) are reading this topic (2 Guests and 0 Anonymous Users)
0 Members:

 



- Lo-Fi Version Support form
Copyrights and abuse reports form
Time is now: 22nd February 2020 - 06:46:21