Welcome Guest ( Log In | Register )

 
Reply to this topicStart new topic
> X-Sinner - World Covered In Blood (2009), Christian Heavy Metal/Hard Rock
post Jun 2 2016, 17:55:50
Post #1

Слэм-неволяшка
***********
Group: Металариец
Posts: 1,664
Releases: 144
From: Севастополь
On Forums: 13 years 5 months
Thanks: 1878 time(s)
Russian Federation


(IMG:http://metalarea.org/images/audiocovers/2016_Jun/acov_tid268563_thumb.jpg)

*Artist: X-Sinner
*Album: World Covered In Blood
*Year: 2009
*Genre: Christian Heavy Metal/Hard Rock
*Country: United States (IMG:http://metalarea.org/forum/style_images/flags/United%20States.png)
*Format: mp3@CBR320kbps
*Size: 96MB

Tracklist:
1. Back In Red 03:35
2. What Rock Is For 03:38
3. Holy Ghost Fire 03:23
4. World Covered In Blood 03:55
5. Storm On The Horizon 04:45
6. Ready To Go 03:58
7. Forgive Them 03:46
8. Wanna Be Set Free 03:08
9. Got Somethin To Say 03:01
10. Who's Your Friend 04:29
11. That Ain't Me 04:52
******************************
Total playing time: 42:30

Extended info
AC/DC? DEF LEPPARD? Нет! Это X-SINNER!!!


Technical info
(IMG:http://metalarea.org/images/spectrogram/2016_Jun/7780ace21b1551dc417274a90756e46c.png)
Input File: 01. Back In Red.mp3
Channels : 2
Sample Rate : 44100
Precision : 16-bit
Duration : 00:03:35.19 = 9490011 samples = 16139.5 CDDA sectors
File Size : 8.61M
Bit Rate : 320k
Sample Encoding: MPEG audio (layer I, II or III)
Comments :
Title=Back In Red
Artist=X-SINNER
Album=World Covered In Blood
Tracknumber=1
Year=2008
Genre=Christian Hard Rock



Register


Go to the top of the page
  Insert nick Quick quote
+Quote Post

Reply to this topicStart new topic
2 User(s) are reading this topic (2 Guests and 0 Anonymous Users)
0 Members:

 



- Lo-Fi Version Support form
Copyrights and abuse reports form
Time is now: 17th September 2019 - 15:23:17