Welcome Guest ( Log In | Register )

> Alkonost - Русалка [ep] (2016), Pagan Folk Metal (D)
post Jun 10 2016, 18:38:50
Post #1

Правь статус, ####!111
**************
Group: Металариец
Posts: 2,280
Releases: 203
On Forums: 12 years 10 months
Thanks: 5064 time(s)
Unknown


(IMG:http://metalarea.org/images/audiocovers/2016_Jun/acov_tid269035_thumb.jpg)

*Artist: Alkonost
*Album: Русалка [ep]
*Year: 2016
*Genre: Pagan Folk Metal
*Country: Russian Federation (IMG:http://metalarea.org/forum/style_images/flags/Russian%20Federation.png)
*Format: mp3@CBR320kbps
*Size: 53MB

Tracklist:
1. Русалка 04:47
2. Кровавые Травы'14 03:37
3. Песня Сольвейг 03:23
4. Damage Case (Motörhead cover) 03:01
5. Земля Грёз 04:35
6. Mouth (Paradise Lost cover) 04:02
******************************
Total playing time: 23:25

Extended info
Ранее выходил как сингл, тут на 3 песни больше и другая обложка.
Previously released as a single, this version has 3 songs more and another cover.
Alkonost - Русалка [single] (2014)


Technical info
(IMG:http://metalarea.org/images/spectrogram/2016_Jun/48209b38f32e577cc55cd2fa89f6f0c5.png)
Input File: 01 - Русалка.mp3
Channels : 2
Sample Rate : 44100
Precision : 16-bit
Duration : 00:04:47.25 = 12667505 samples = 21543.4 CDDA sectors
File Size : 11.5M
Bit Rate : 321k
Sample Encoding: MPEG audio (layer I, II or III)
Comments :
Title=Русалка
Artist=Alkonost
Album=Русалка
Tracknumber=01
Year=2016
Genre=Pagan Folk Metal



Register


Go to the top of the page
  Insert nick Quick quote
+Quote Post
 
Start new topic
Replies (1 - 9)
post Jun 11 2016, 03:50:38
Post #2

Шесть Литров
******
Group: Металариец
Posts: 530
Releases: 26
On Forums: 10 years 4 months
Thanks: 542 time(s)
Chile


Thanks (IMG:style_emoticons/default/dwarf-1.gif)
Go to the top of the page
  Insert nick Quick quote
+Quote Post
post Jun 11 2016, 10:17:26
Post #3

Necromancer
Group Icon
Group: Curation team
Posts: 10,943
Releases: 271
From: Зеленоград
On Forums: 13 years 1 week
Thanks: 8780 time(s)
Russian Federation


Неплохо, хотя для меня эта группа давео не интересна.
Go to the top of the page
  Insert nick Quick quote
+Quote Post
post Jun 11 2016, 15:25:20
Post #4

Русь Понад Усе!
**************
Group: Металариец
Posts: 4,216
Releases: 15
From: Украина
On Forums: 12 years 1 month
Thanks: 1653 time(s)
Ukraine


Пожалуй одна из фолковых групп которая меня не раздражает и слушаю их с удовольствием.
Go to the top of the page
  Insert nick Quick quote
+Quote Post
post Jun 11 2016, 18:56:13
Post #5

Котеги! Нравяцо котеги?
**************
Group: Металариец
Posts: 5,796
Releases: 0
From: Терра Инкогнита
On Forums: 9 years 4 months
Thanks: 2309 time(s)
Russian Federation


ЦИТАТА(kostja @ 10th June 2016 - 20:38:50) *
. Mouth (Paradise Lost cover)

данунаху (IMG:style_emoticons/default/12.gif)

мухаха, прикольно получилось (IMG:style_emoticons/default/crazy.gif)
Go to the top of the page
  Insert nick Quick quote
+Quote Post
post Jun 12 2016, 11:19:02
Post #6

Правь статус, ####!111
**************
Group: Металариец
Posts: 3,610
Releases: 11
From: Москва и МО
On Forums: 13 years 3 months
Thanks: 943 time(s)
Russian Federation


Хитрые. Поставили в конец такой хитярище, одна из крутейших песенок PL, которую можно на репите хоть весь день слушать. Хорошо перепели. Из-за нее пришлось послушать еще на разок и распробовать.
Как всегда, хороший слушабельный релиз, добротная банда.
Go to the top of the page
  Insert nick Quick quote
+Quote Post
post Oct 6 2016, 11:15:15
Post #7

Литр
*
Group: Подсевший
Posts: 99
Releases: 0
From: Польша
On Forums: 6 years 7 months
Thanks: 52 time(s)
Poland


Re-up, please?
Go to the top of the page
  Insert nick Quick quote
+Quote Post
post Oct 10 2016, 07:53:58
Post #8

Котеги! Нравяцо котеги?
**************
Group: Металариец
Posts: 5,796
Releases: 0
From: Терра Инкогнита
On Forums: 9 years 4 months
Thanks: 2309 time(s)
Russian Federation


ЦИТАТА(metalfanatic666 @ 6th October 2016 - 13:15:15) *
Re-up, please?

rgho.st in start post is stil alive
Go to the top of the page
  Insert nick Quick quote
+Quote Post
post Aug 18 2019, 01:40:23
Post #9

Семь Литров
*******
Group: Металариец
Posts: 733
Releases: 2
From: Moscow
On Forums: 13 years 1 week
Thanks: 139 time(s)
Russian Federation


Pls re-up! (IMG:style_emoticons/default/pray.gif)
Go to the top of the page
  Insert nick Quick quote
+Quote Post
post Aug 18 2019, 05:00:53
Post #10

Добрый
**************
Group: Металариец
Posts: 2,747
Releases: 0
On Forums: 1 year 3 months
Thanks: 2722 time(s)
Russian Federation


53 mb/320 kbps
Register


Thanks:
Go to the top of the page
  Insert nick Quick quote
+Quote Post

Reply to this topicStart new topic
1 User(s) are reading this topic (1 Guests and 0 Anonymous Users)
0 Members:

 



- Lo-Fi Version Support form
Copyrights and abuse reports form
Time is now: 16th October 2019 - 22:47:06