Welcome Guest ( Log In | Register )

> Adrastea - The Ruins Of Reminiscence (2016), Power Metal
post Jul 1 2016, 13:45:00
Post #1

Serial Uploader
Group Icon
Group: V.I.P
Posts: 37,203
Releases: 35386
From: Lithuania
On Forums: 12 years 4 weeks
Thanks: 421183 time(s)
Lithuania


(IMG:https://metalarea.org/images/audiocovers/2016_Jul/acov_tid270089_thumb.jpg)

*Artist: Adrastea
*Album: The Ruins Of Reminiscence
*Year: 2016
*Genre: Power Metal
*Country: Japan (IMG:https://metalarea.org/forum/style_images/flags/Japan.png)
*Format: mp3@CBR320kbps
*Size: 112MB

Tracklist:
01. Prologue ~For Reminiscence~ 01:39
02. Blood for Emprise 05:39
03. Night Gloria (album version) 04:00
04. The Undead Castle 05:27
05. Chains of Abyss 05:16
06. Prayer in Dawn 03:44
07. The Enchanted Ballerina 04:54
08. Praise of Warriors 05:24
09. The Forbidden 04:26
10. Sleep of Insomnia (album version) 05:24
******************************
Total playing time: 45:53



Extended info
CD-rip with scans


Technical info
(IMG:https://metalarea.org/images/spectrogram/2016_Jul/acb0497102b06d4be2bded9e075ba153.png)
Input File: 02. Blood For Emprise.mp3
Channels : 2
Sample Rate : 44100
Precision : 16-bit
Duration : 00:05:29.33 = 14523585 samples = 24700 CDDA sectors
File Size : 13.3M
Bit Rate : 322k
Sample Encoding: MPEG audio (layer I, II or III)
Comments :
Title=Blood For Emprise
Artist=Adrastea
Album=The Ruins Of Reminiscence
Tracknumber=02
Year=2016
Genre=Power Metal



Register


Go to the top of the page
  Insert nick Quick quote
+Quote Post
 
Start new topic
Replies (1 - 4)
post Jul 1 2016, 17:14:34
Post #2

MDM-Thrash Metal
**************
Group: Металариец
Posts: 9,632
Releases: 914
From: Одесса
On Forums: 12 years 10 months
Thanks: 23611 time(s)
Ukraine




Thanks:
(1) artscald,
Go to the top of the page
  Insert nick Quick quote
+Quote Post
post Mar 12 2018, 19:21:46
Post #3

Добрый десептикон
******
Group: Металариец
Posts: 606
Releases: 409
On Forums: 12 years 5 months
Thanks: 4363 time(s)
Russian Federation


Перезалейте, пожалуйста.
Go to the top of the page
  Insert nick Quick quote
+Quote Post
post Jun 30 2020, 19:46:59
Post #4

Четыре Литра
****
Group: Металариец
Posts: 309
Releases: 0
On Forums: 11 months 1 week
Thanks: 2 time(s)
Argentina


link caido
Go to the top of the page
  Insert nick Quick quote
+Quote Post
post Jun 30 2020, 20:06:34
Post #5

Добрый
**************
Group: Металариец
Posts: 3,984
Releases: 0
On Forums: 2 years 4 days
Thanks: 6736 time(s)
Russian Federation


105 mb/320 kbps
Register


Thanks:
Go to the top of the page
  Insert nick Quick quote
+Quote Post

Reply to this topicStart new topic
2 User(s) are reading this topic (2 Guests and 0 Anonymous Users)
0 Members:

 



- Lo-Fi Version Support form
Copyrights and abuse reports form
Time is now: 6th July 2020 - 03:53:08