Welcome Guest ( Log In | Register )

> Aosoth - IV/Appendixes [compilation] (2016), Black Metal
post Jul 2 2016, 10:23:18
Post #1

Маньяк
**********
Group: Металариец
Posts: 1,406
Releases: 1094
From: Prešov
On Forums: 4 years 6 months
Thanks: 25602 time(s)
Slovakia


(IMG:http://metalarea.org/images/audiocovers/2016_Jul/acov_tid270142_thumb.jpg)

*Artist: Aosoth
*Album: IV/Appendixes [compilation]
*Year: 2016
*Genre: Black Metal
*Country: France (IMG:http://metalarea.org/forum/style_images/flags/France.png)
*Format: mp3@CBR320kbps
*Size: 72MB

Tracklist:
1. Appendix A 06:16
2. Appendix B 10:18
3. Unbroken Dialogue 06:16
4. Appendix C 08:29
******************************
Total playing time: 31:19

Extended info
Tape

Limit 200 copies.


Technical info
(IMG:http://metalarea.org/images/spectrogram/2016_Jul/f102cf516143cbc2b1870f96c6c44fef.png)
Input File: 03. Unbroken Dialogue.mp3
Channels : 2
Sample Rate : 44100
Precision : 16-bit
Duration : 00:06:16.62 = 16608766 samples = 28246.2 CDDA sectors
File Size : 15.1M
Bit Rate : 322k
Sample Encoding: MPEG audio (layer I, II or III)
Comments :
Title=Unbroken Dialogue
Artist=Aosoth
Album=IV / Appendixes
Tracknumber=03/04
Year=2016
Genre=Black Metal
Discnumber=1



Register


Go to the top of the page
  Insert nick Quick quote
+Quote Post
 
Start new topic
Replies (1 - 7)
post Jul 2 2016, 10:46:34
Post #2

filed under desecration
Group Icon
Group: S-moderation team
Posts: 8,674
Releases: 1643
On Forums: 10 years 2 months
Thanks: 98928 time(s)
Unknown


Зеркало -

Register


Go to the top of the page
  Insert nick Quick quote
+Quote Post
post Jul 2 2016, 18:34:57
Post #3

While Waiting the Worms
******
Group: Металариец
Posts: 610
Releases: 0
On Forums: 4 years 9 months
Thanks: 861 time(s)
Unknown


Tracks from the 7'' split with Kommandant, the 10'' EP IV and the 12'' split with Order of Orias.
Go to the top of the page
  Insert nick Quick quote
+Quote Post
post Jul 4 2016, 23:46:24
Post #4

Самый Тихий Час
**************
Group: Металариец
Posts: 5,603
Releases: 0
On Forums: 8 years 11 months
Thanks: 2436 time(s)
Unknown


Как то я пропустил прошлый год в творчестве Ашота. (Отчасти после стремноватого последнего альбуса) Как оказалось зря...
ЦИТАТА(Velmi @ 2nd July 2016 - 12:23:18) *
Appendix C

(IMG:style_emoticons/default/pray.gif)
В неторопливой поступи они несрвненны.
Go to the top of the page
  Insert nick Quick quote
+Quote Post
post Jul 12 2016, 09:14:10
Post #5

Инфернальный Данмер
**********
Group: Металариец
Posts: 1,099
Releases: 24
From: Суран, Морровинд
On Forums: 11 years 7 months
Thanks: 3186 time(s)
New Zealand


Никогда не думал, что скажу такое, но все аппендиксы по-своему хороши. (IMG:style_emoticons/default/20.gif)
Go to the top of the page
  Insert nick Quick quote
+Quote Post
post Nov 17 2016, 21:51:00
Post #6
BAN
Banned till
Oct 23 2018, 12:27:08



Крайне скучно и невыразительно. Тягомотина.


Thanks:
Go to the top of the page
  Insert nick Quick quote
+Quote Post
post Nov 18 2016, 08:11:43
Post #7

Маньяк
**********
Group: Металариец
Posts: 1,435
Releases: 0
From: Санкт-Петербург
On Forums: 9 years 1 month
Thanks: 554 time(s)
Russian Federation


У меня тоже эти апендиксы как-то не вызвали восторга, но ведь это и не полнофоормат
Go to the top of the page
  Insert nick Quick quote
+Quote Post
post Jul 12 2018, 14:07:30
Post #8

Девять Литров
*********
Group: Металариец
Posts: 982
Releases: 14
On Forums: 10 years 2 weeks
Thanks: 800 time(s)
Russian Federation


Appendix C заслуживает внимания, остальное просто норм.
Go to the top of the page
  Insert nick Quick quote
+Quote Post

Reply to this topicStart new topic
2 User(s) are reading this topic (2 Guests and 0 Anonymous Users)
0 Members:

 



- Lo-Fi Version Support form
Copyrights and abuse reports form
Time is now: 17th October 2018 - 22:21:07