Welcome Guest ( Log In | Register )

> Neige Et Noirceur - Les Ténèbres Modernes (2016), Atmospheric Black Metal
post Jul 7 2016, 21:34:40
Post #1

Аннигилятор пивА
Group Icon
Group: V.I.P
Posts: 52,360
Releases: 16550
From: Koenigsberg - TILZIT
On Forums: 14 years 18 hours
Thanks: 365254 time(s)
Russian Federation


(IMG:https://metalarea.org/images/audiocovers/2016_Jul/acov_tid270394_thumb.jpg)

*Artist: Neige Et Noirceur
*Album: Les Ténèbres Modernes
*Year: 2016
*Genre: Atmospheric Black Metal
*Country: Canada (IMG:https://metalarea.org/forum/style_images/flags/Canada.png)
*Format: mp3@CBR320kbps
*Size: 94MB

Tracklist:
01. Si Vis Pacem, Para Bellum 03:18
02. Battlespirit 04:44
03. Walpurgis 1917 02:42
04. La Saison des morts 02:42
05. La Mécanique de Lucifer 06:01
06. Post Mortem 02:11
07. Ciel d'acier 05:15
08. Felgrau 04:38
09. Des spectres 02:44
10. Adieux 05:33
******************************
Total playing time: 39:48

Extended info


Technical info
(IMG:https://metalarea.org/images/spectrogram/2016_Jul/a53b61e1b520704b34816d00cc14e1ac.png)
Input File: Neige et Noirceur - 03 - Walpurgis 1917.mp3
Channels : 2
Sample Rate : 44100
Precision : 16-bit
Duration : 00:02:41.51 = 7122459 samples = 12113 CDDA sectors
File Size : 6.60M
Bit Rate : 327k
Sample Encoding: MPEG audio (layer I, II or III)
Comments :
Title=Walpurgis 1917
Artist=Neige et Noirceur
Album=Les TГ©nГЁbres Modernes
Tracknumber=03
Year=2016
Genre=Black Metal



Register


Go to the top of the page
  Insert nick Quick quote
+Quote Post
 
Start new topic
Replies (1 - 3)
post Jul 8 2016, 09:06:46
Post #2

the faceless one
Group Icon
Group: S-moderation team
Posts: 9,323
Releases: 1924
On Forums: 11 years 9 months
Thanks: 114800 time(s)
Russian Federation


Register


Go to the top of the page
  Insert nick Quick quote
+Quote Post
post Jul 8 2016, 11:01:51
Post #3

Group: Подсевший
Posts: 45
Releases: 1
On Forums: 10 years 6 months
Thanks: 22 time(s)
Moldova


What? Previous albums had a richer sound. They were more atmospheric, with more folk influences. WHAT IS THIS?
Go to the top of the page
  Insert nick Quick quote
+Quote Post
post May 23 2020, 13:36:40
Post #4

Правь статус, ####!111
**************
Group: Металариец
Posts: 8,143
Releases: 0
From: Москва
On Forums: 10 years 9 months
Thanks: 14469 time(s)
Russian Federation


Register
320
Go to the top of the page
  Insert nick Quick quote
+Quote Post

Reply to this topicStart new topic
2 User(s) are reading this topic (2 Guests and 0 Anonymous Users)
0 Members:

 



- Lo-Fi Version Support form
Copyrights and abuse reports form
Time is now: 28th May 2020 - 14:15:19