Welcome Guest ( Log In | Register )

> Eggs Of Gomorrh - Rot Prophet (2016), Black/Death Metal
post Jul 18 2016, 14:57:22
Post #1

Маньяк
**********
Group: Металариец
Posts: 1,377
Releases: 1071
From: Prešov
On Forums: 4 years 5 months
Thanks: 24855 time(s)
Slovakia


(IMG:http://metalarea.org/images/audiocovers/2016_Jul/acov_tid270904_thumb.jpg)

*Artist: Eggs Of Gomorrh
*Album: Rot Prophet
*Year: 2016
*Genre: Black/Death Metal
*Country: Switzerland (IMG:http://metalarea.org/forum/style_images/flags/Switzerland.png)
*Format: mp3@CBR320kbps
*Size: 62MB

Tracklist:
1. Lust of Murder 05:10
2. Goat Inkvizitor 03:30
3. Whore of Sodom 03:41
4. Elation Devout 05:23
5. Appharkt 03:37
6. Ragi 01:45
7. Rot Prophet 02:45
******************************
Total playing time: 25:51



Extended info
2016 a.b. cassette reissue by Gravplass Propaganda (Norway). Lim. to 100 copies.


Technical info
(IMG:http://metalarea.org/images/spectrogram/2016_Jul/a40953c2c797aefcc404c4228757a558.png)
Input File: 02. Goat Inkvizitor.mp3
Channels : 2
Sample Rate : 44100
Precision : 16-bit
Duration : 00:03:31.09 = 9309025 samples = 15831.7 CDDA sectors
File Size : 8.61M
Bit Rate : 326k
Sample Encoding: MPEG audio (layer I, II or III)
Comments :
Title=Goat Inkvizitor
Artist=Eggs of Gomorrh
Album=Rot Prophet
Tracknumber=02/07
Year=2016
Genre=Black / Death Metal



Register


Go to the top of the page
  Insert nick Quick quote
+Quote Post
 
Start new topic
Replies (1 - 6)
post Jul 18 2016, 16:14:19
Post #2

filed under desecration
Group Icon
Group: S-moderation team
Posts: 8,674
Releases: 1643
On Forums: 10 years 1 month
Thanks: 98741 time(s)
Unknown


Register


Go to the top of the page
  Insert nick Quick quote
+Quote Post
post Aug 9 2016, 11:02:32
Post #3

...Only Death Is Real...
**************
Group: Металариец
Posts: 2,663
Releases: 15
On Forums: 8 years 1 month
Thanks: 1639 time(s)
Russian Federation


Хорошие такие "яйца". (IMG:style_emoticons/default/crazy.gif) Ценителям "козлятины" качать 100%! (IMG:style_emoticons/default/true_black.gif)
Go to the top of the page
  Insert nick Quick quote
+Quote Post
post Aug 18 2016, 13:27:24
Post #4

\m/
Group Icon
Group: S-moderation team
Posts: 7,480
Releases: 19
From: Петропавловск-Камчатский
On Forums: 9 years 3 months
Thanks: 6765 time(s)
Russian Federation


ЦИТАТА(Hell_Is_Here @ 9th August 2016 - 22:02:32) *
Ценителям "козлятины" качать 100%!

Я бы добавил: архикозлятины (IMG:style_emoticons/default/true_black.gif)
Go to the top of the page
  Insert nick Quick quote
+Quote Post
post Nov 3 2017, 06:50:14
Post #5

Absorbence
***********
Group: Металариец
Posts: 1,602
Releases: 215
From: Vastland Abyss of Cthulhu
On Forums: 11 years 10 months
Thanks: 3582 time(s)
Canada


could anyone reupload please
Go to the top of the page
  Insert nick Quick quote
+Quote Post
post Nov 16 2017, 07:21:58
Post #6

Absorbence
***********
Group: Металариец
Posts: 1,602
Releases: 215
From: Vastland Abyss of Cthulhu
On Forums: 11 years 10 months
Thanks: 3582 time(s)
Canada


Файл уже удален, please upload again
Go to the top of the page
  Insert nick Quick quote
+Quote Post
post Nov 17 2017, 08:16:50
Post #7

...
Group Icon
Group: S-moderation team
Posts: 6,962
Releases: 1286
On Forums: 7 years 6 months
Thanks: 34288 time(s)
Croatia


Register


Go to the top of the page
  Insert nick Quick quote
+Quote Post

Reply to this topicStart new topic
1 User(s) are reading this topic (1 Guests and 0 Anonymous Users)
0 Members:

 



- Lo-Fi Version Support form
Copyrights and abuse reports form
Time is now: 19th September 2018 - 11:46:27