Welcome Guest ( Log In | Register )

> И неформату есть предел.

Рэп/хип-хоп/шансон/поп удаляются. Для них есть свои порталы.

> Alaska - The Pack (1985), Melodic Rock
post Jul 21 2016, 17:19:48
Post #1

Carcassticism
**************
Group: Металариец
Posts: 5,441
Releases: 2542
On Forums: 11 years 1 week
Thanks: 15236 time(s)
Russian Federation


(IMG:http://metalarea.org/images/audiocovers/2016_Jul/acov_tid271073_thumb.jpg)

*Artist: Alaska
*Album: The Pack
*Year: 1985
*Genre: Melodic Rock
*Country: United Kingdom (IMG:http://metalarea.org/forum/style_images/flags/United%20Kingdom.png)
*Format: mp3@CBR320kbps
*Size: 94MB

Tracklist:
1. Running With The Pack
2. A Woman Like You
3. Where Did They Go?
4. Schoolgirl
5. S.O.S.
6. Help Yourself
7. Miss You Tonight
8. The Thing
9. I Really Want Know
******************************
Total playing time: 42:17

(IMG:http://metalarea.org/images/youtube.png)

Technical info
(IMG:http://metalarea.org/images/spectrogram/2016_Jul/cb891986bbc6bb3c0240586bf80eecfc.png)
Input File: 1 Running With the Pack.mp3
Channels : 2
Sample Rate : 44100
Precision : 16-bit
Duration : 00:03:47.87 = 10048979 samples = 17090.1 CDDA sectors
File Size : 9.12M
Bit Rate : 320k
Sample Encoding: MPEG audio (layer I, II or III)
Comments :
Title=Running With The Pack
Artist=Alaska
Album=The Pack
Tracknumber=1
Year=1985
Genre=Melodic Heavy Metal



Register


Thanks:
Go to the top of the page
  Insert nick Quick quote
+Quote Post
 
Start new topic
Replies (1 - 1)
post May 15 2019, 13:55:57
Post #2

Два Литра
**
Group: Завсегдатай
Posts: 192
Releases: 0
From: VANCOUVER
On Forums: 9 years 1 week
Thanks: 18 time(s)
Canada


REUPLOAD PLEASE
Go to the top of the page
  Insert nick Quick quote
+Quote Post

Reply to this topicStart new topic
2 User(s) are reading this topic (2 Guests and 0 Anonymous Users)
0 Members:

 



- Lo-Fi Version Support form
Copyrights and abuse reports form
Time is now: 19th May 2019 - 16:08:39