Welcome Guest ( Log In | Register )

> Aethyrvorous - Aethyrvorous [demo] (2009), Ritual Black/Death Metal
post Jul 24 2016, 19:02:53
Post #1

Маньяк
**********
Group: Металариец
Posts: 1,155
Releases: 887
From: Prešov
On Forums: 3 years 10 months
Thanks: 20393 time(s)
Slovakia


(IMG:http://metalarea.org/images/audiocovers/2016_Jul/acov_tid271212_thumb.jpg)

*Artist: Aethyrvorous
*Album: Aethyrvorous [demo]
*Year: 2009
*Genre: Ritual Black/Death Metal
*Country: Australia (IMG:http://metalarea.org/forum/style_images/flags/Australia.png)
*Format: mp3@CBR320kbps
*Size: 53MB

Tracklist:
1. I 06:50
2. II 06:01
3. III 10:35
******************************
Total playing time: 23:26

Extended info
Tape-rip


Technical info
(IMG:http://metalarea.org/images/spectrogram/2016_Jul/28c326fc054c8f756038360d297437af.png)
Input File: 01. I.mp3
Channels : 2
Sample Rate : 44100
Precision : 16-bit
Duration : 00:06:32.80 = 17322568 samples = 29460.1 CDDA sectors
File Size : 15.9M
Bit Rate : 324k
Sample Encoding: MPEG audio (layer I, II or III)
Comments :
Title=I
Artist=Aethyrvorous
Album=Aethyrvorous
Tracknumber=01/03
Year=2009
Genre=Black / Death Metal



Register


Вернуться к началу страницы
  Insert nick Quick quote
+Цитировать сообщение
 
Создать новую тему
Replies (1 - 6)
post Jul 25 2016, 02:28:26
Post #2

Правь статус, ####!111
**************
Group: Металариец
Posts: 2,322
Releases: 11
From: Canada
On Forums: 10 years 8 months
Thanks: 1456 time(s)
Canada




Thanks:
(1) Occultas,
Вернуться к началу страницы
  Insert nick Quick quote
+Цитировать сообщение
post Aug 9 2016, 15:34:30
Post #3

...Only Death Is Real...
**************
Group: Металариец
Posts: 2,529
Releases: 15
On Forums: 7 years 7 months
Thanks: 1572 time(s)
Russian Federation


Мрак с участником Impetuous Ritual и Grave Upheaval. (IMG:style_emoticons/default/true_black.gif)
Вернуться к началу страницы
  Insert nick Quick quote
+Цитировать сообщение
post Sep 18 2016, 15:15:46
Post #4

Правь статус, ####!111
**************
Group: Металариец
Posts: 6,577
Releases: 0
From: Москва
On Forums: 8 years 6 months
Thanks: 10473 time(s)
Russian Federation


Перезалейте плз
Вернуться к началу страницы
  Insert nick Quick quote
+Цитировать сообщение
post Nov 11 2016, 19:10:29
Post #5

...Only Death Is Real...
**************
Group: Металариец
Posts: 2,529
Releases: 15
On Forums: 7 years 7 months
Thanks: 1572 time(s)
Russian Federation


ЦИТАТА(varlam4 @ Sep 18 2016, 19:15:46) *
Перезалейте плз

Register
Вернуться к началу страницы
  Insert nick Quick quote
+Цитировать сообщение
post Sep 17 2017, 21:08:02
Post #6

Литр
*
Group: Подсевший
Posts: 87
Releases: 0
On Forums: 10 years 7 months
Thanks: 2 time(s)
Afghanistan


Please re-up.
Вернуться к началу страницы
  Insert nick Quick quote
+Цитировать сообщение
post Sep 21 2017, 07:31:15
Post #7

Маньяк
**********
Group: Металариец
Posts: 1,294
Releases: 0
From: MoscoW
On Forums: 11 years 2 months
Thanks: 865 time(s)
Russian Federation


Перезалито на Yadi.sk:
Register

(IMG:style_emoticons/default/metaler.gif)


Thanks:
Вернуться к началу страницы
  Insert nick Quick quote
+Цитировать сообщение

ОтветитьСоздать новую тему
1 User(s) are reading this topic (1 Guests and 0 Anonymous Users)
0 Members:

 



- Lo-Fi Version Support form
Copyrights and abuse reports form
Time is now: 24th February 2018 - 18:54:34