Welcome Guest ( Log In | Register )

> Неживой - Гниющие Столпы Творения [ep] (2015), Black/Death Metal
post Aug 1 2016, 21:36:04
Post #1

Group: Дух
Posts: 5
Releases: 2
On Forums: 4 years 3 months
Thanks: 25 time(s)
Unknown


(IMG:http://metalarea.org/images/audiocovers/2016_Aug/acov_tid271618_thumb.jpg)

*Artist: Неживой
*Album: Гниющие Столпы Творения [ep]
*Year: 2015
*Genre: Black/Death Metal
*Country: Russian Federation (IMG:http://metalarea.org/forum/style_images/flags/Russian%20Federation.png)
*Format: mp3@CBR320kbps
*Size: 24MB

Tracklist:
1. IX
2. Ведущий Вещий Круг
******************************
Total playing time: 11:28



Extended info
Cover by M.V.
Temple of Morbid Sound


Technical info
(IMG:http://metalarea.org/images/spectrogram/2016_Aug/9e723b481bc0978c41bdab00fe8ce2a0.png)
Input File: 02. Ведущий Вещий Круг.mp3
Channels : 2
Sample Rate : 44100
Precision : 16-bit
Duration : 00:05:08.04 = 13584344 samples = 23102.6 CDDA sectors
File Size : 12.3M
Bit Rate : 320k
Sample Encoding: MPEG audio (layer I, II or III)



Register


Go to the top of the page
  Insert nick Quick quote
+Quote Post
 
Start new topic
Replies (1 - 2)
post Jan 15 2019, 16:05:06
Post #2

Group: Дух
Posts: 2
Releases: 0
On Forums: 2 years 7 months
Thanks: 0 time(s)
Russian Federation


Перезалейте, пожалуйста, русфолдер давно мёртв.(
Go to the top of the page
  Insert nick Quick quote
+Quote Post
post Jan 15 2019, 18:20:51
Post #3

Литр
*
Group: Подсевший
Posts: 91
Releases: 0
On Forums: 11 years 1 week
Thanks: 24 time(s)
Russian Federation


Перезалейте! Заранее благодарен)


Thanks:
Go to the top of the page
  Insert nick Quick quote
+Quote Post

Reply to this topicStart new topic
2 User(s) are reading this topic (2 Guests and 0 Anonymous Users)
0 Members:

 



- Lo-Fi Version Support form
Copyrights and abuse reports form
Time is now: 21st September 2019 - 02:09:38