Welcome Guest ( Log In | Register )

> Healing Harm - Narrow Path (2016), Melodic Death/Progressive Metal
post Aug 2 2016, 03:22:19
Post #1

Serial Uploader
Group Icon
Group: V.I.P
Posts: 33,128
Releases: 31413
From: Lithuania
On Forums: 10 years 4 months
Thanks: 359232 time(s)
Lithuania


(IMG:http://metalarea.org/images/audiocovers/2016_Aug/acov_tid271625_thumb.jpg)

*Artist: Healing Harm
*Album: Narrow Path
*Year: 2016
*Genre: Melodic Death/Progressive Metal
*Country: Mexico (IMG:http://metalarea.org/forum/style_images/flags/Mexico.png)
*Format: mp3@CBR320kbps
*Size: 89MB

Tracklist:
01. Deathly Nettles
02. Narrow Path
03. Frozen Heat
04. Who We Are
05. Don't You Dare
06. Black Rain
******************************
Total playing time: 32:00




Technical info
(IMG:http://metalarea.org/images/spectrogram/2016_Aug/3782bd73de3bda3e9971a02210bc7eab.png)
Input File: 02. Narrow Path.mp3
Channels : 2
Sample Rate : 44100
Precision : 16-bit
Duration : 00:05:35.76 = 14807016 samples = 25182 CDDA sectors
File Size : 15.2M
Bit Rate : 361k
Sample Encoding: MPEG audio (layer I, II or III)
Comments :
Title=Narrow Path
Artist=Healing Harm
Album=Narrow Path
Tracknumber=02/06
Year=2016



Register


Go to the top of the page
  Insert nick Quick quote
+Quote Post
 
Start new topic
Replies (1 - 2)
post Aug 2 2016, 12:12:59
Post #2

Ъ
**************
Group: Металариец
Posts: 9,218
Releases: 9
On Forums: 9 years 9 months
Thanks: 1762 time(s)
Sweden


Сыро, хотя местами симпатично.
Go to the top of the page
  Insert nick Quick quote
+Quote Post
post May 16 2018, 16:24:07
Post #3

Stultus Anethum Siccum.
******
Group: Металариец
Posts: 598
Releases: 0
On Forums: 9 years 8 months
Thanks: 66 time(s)
Unknown


Весьма неплохо, понравилось!
Go to the top of the page
  Insert nick Quick quote
+Quote Post

Reply to this topicStart new topic
1 User(s) are reading this topic (1 Guests and 0 Anonymous Users)
0 Members:

 



- Lo-Fi Version Support form
Copyrights and abuse reports form
Time is now: 18th October 2018 - 16:54:17