Welcome Guest ( Log In | Register )

> Imperial Crypt - Fate Of The All-Father (2016), Viking/Black/Folk Metal
post Aug 4 2016, 13:44:21
Post #1

Serial Uploader
Group Icon
Group: V.I.P
Posts: 31,478
Releases: 29810
From: Lithuania
On Forums: 9 years 8 months
Thanks: 342207 time(s)
Lithuania


(IMG:http://metalarea.org/images/audiocovers/2016_Aug/acov_tid271749_thumb.jpg)

*Artist: Imperial Crypt
*Album: Fate Of The All-Father
*Year: 2016
*Genre: Viking/Black/Folk Metal
*Country: United States (IMG:http://metalarea.org/forum/style_images/flags/United%20States.png)
*Format: mp3@CBR320kbps
*Size: 129MB

Tracklist:
01. The Valiant March Of Heathens 02:08
02. Glory Of Teutoburg 05:15
03. Arminius: Scourge Of Rome 04:40
04. Gathered To The Blood Court 06:56
05. A Shrine Of Moloch 05:37
06. Twilight And The Sacred Grove 01:51
07. Treachery In Winter 05:09
08. Battle Of The Sky Pillar 07:28
09. Fenris: Jaws That Conceal The Abyss 08:24
10. Fate Of The All-Father 08:07
******************************
Total playing time: 55:35




Technical info
(IMG:http://metalarea.org/images/spectrogram/2016_Aug/a92858b5852b1962a0704e7fda720775.png)
Input File: 02. Glory Of Teutoburg.mp3
Channels : 2
Sample Rate : 44100
Precision : 16-bit
Duration : 00:05:15.36 = 13907200 samples = 23651.7 CDDA sectors
File Size : 12.9M
Bit Rate : 326k
Sample Encoding: MPEG audio (layer I, II or III)
Comments :
Title=Glory Of Teutoburg
Artist=Imperial Crypt
Album=Fate Of The All-Father
Tracknumber=02/10
Year=2016



Register


Вернуться к началу страницы
  Insert nick Quick quote
+Цитировать сообщение
 
Создать новую тему
Replies (1 - 5)
post Aug 7 2016, 05:13:06
Post #2

Правь статус, ####!111
**************
Group: Металариец
Posts: 2,322
Releases: 11
From: Canada
On Forums: 10 years 8 months
Thanks: 1456 time(s)
Canada


Вернуться к началу страницы
  Insert nick Quick quote
+Цитировать сообщение
post Aug 9 2016, 11:53:31
Post #3

hearer & reader
**************
Group: Металариец
Posts: 5,999
Releases: 78
From: Moscow
On Forums: 10 years 5 months
Thanks: 6221 time(s)
Russian Federation


tags: barbarian metal black metal dark age fenris folk metal heroic black metal melodic death metal metal romans thor viking wotan barbarian fantasy mythology tragedy White Plains (IMG:style_emoticons/default/15.gif)
Вернуться к началу страницы
  Insert nick Quick quote
+Цитировать сообщение
post Dec 5 2017, 20:54:01
Post #4

Правь статус, ####!111
**************
Group: Металариец
Posts: 3,168
Releases: 8
From: Москва и МО
On Forums: 11 years 7 months
Thanks: 760 time(s)
Russian Federation


Может я чего-то путаю, но мне показалось весьма похоже на нехаотичный Bal-Sagoth. Весьма слушабельно и интересно.
Вернуться к началу страницы
  Insert nick Quick quote
+Цитировать сообщение
post Dec 7 2017, 15:29:29
Post #5

Два Литра
**
Group: Завсегдатай
Posts: 137
Releases: 0
On Forums: 4 years 3 months
Thanks: 2 time(s)
Germany


can anybody reup this file?
Вернуться к началу страницы
  Insert nick Quick quote
+Цитировать сообщение
post Dec 7 2017, 16:12:44
Post #6

Forever Underground
**************
Group: Металариец
Posts: 3,491
Releases: 0
On Forums: 2 years 10 months
Thanks: 2625 time(s)
Unknown


QUOTE(carla667 @ Dec 7 2017, 15:29:29) *
can anybody reup this file?

From the web, @320:
Register


Вернуться к началу страницы
  Insert nick Quick quote
+Цитировать сообщение

ОтветитьСоздать новую тему
1 User(s) are reading this topic (1 Guests and 0 Anonymous Users)
0 Members:

 



- Lo-Fi Version Support form
Copyrights and abuse reports form
Time is now: 24th February 2018 - 16:55:18