Welcome Guest ( Log In | Register )

> Opeth - Sorceress [single] (2016), Progressive Metal (D)
post Aug 4 2016, 16:20:11
Post #1

Аннигилятор пивА
Group Icon
Group: V.I.P
Posts: 52,360
Releases: 16550
From: Koenigsberg - TILZIT
On Forums: 13 years 10 months
Thanks: 364636 time(s)
Russian Federation


(IMG:http://metalarea.org/images/audiocovers/2016_Aug/acov_tid271763_thumb.jpg)

*Artist: Opeth
*Album: Sorceress [single]
*Year: 2016
*Genre: Progressive Metal
*Country: Sweden (IMG:http://metalarea.org/forum/style_images/flags/Sweden.png)
*Format: mp3@CBR320kbps
*Size: 15MB

Tracklist:
1. Sorceress 05:49
******************************
Total playing time: 5:49

Extended info


Technical info
(IMG:http://metalarea.org/images/spectrogram/2016_Aug/72023f89816cc4437f38cb561ac2e7d8.png)
Input File: 01 - Sorceress.mp3
Channels : 2
Sample Rate : 44100
Precision : 16-bit
Duration : 00:05:49.19 = 15399191 samples = 26189.1 CDDA sectors
File Size : 14.1M
Bit Rate : 323k
Sample Encoding: MPEG audio (layer I, II or III)
Comments :
Title=Sorceress
Artist=Opeth
Album=Sorceress
Tracknumber=1
Year=2016
Genre=9
Discnumber=1



Register


Go to the top of the page
  Insert nick Quick quote
+Quote Post
2 Pages V  < 1 2  
Start new topic
Replies (30 - 36)
post Aug 5 2016, 22:01:16
Post #31

Ледоруб
**************
Group: Металариец
Posts: 24,399
Releases: 0
From: Санкт-Петербург
On Forums: 10 years 6 months
Thanks: 8367 time(s)
Russian Federation


ЦИТАТА(vosmidesijatye @ Aug 6 2016, 00:00:26) *
Кому ещё не понравилось? (IMG:style_emoticons/default/15.gif)

Всем нормальным.


Thanks:
(1) Shadowman,
Go to the top of the page
  Insert nick Quick quote
+Quote Post
post Aug 5 2016, 22:19:53
Post #32

Правь статус, ####!111
**************
Group: Металариец
Posts: 45,660
Releases: 704
On Forums: 10 years 9 months
Thanks: 37612 time(s)
Russian Federation


О себе во множественном числе не говорят.
Go to the top of the page
  Insert nick Quick quote
+Quote Post
post Aug 6 2016, 21:41:30
Post #33

at the top
**************
Group: Металариец
Posts: 4,677
Releases: 0
From: Одесса
On Forums: 12 years 4 weeks
Thanks: 3223 time(s)
Ukraine


Unformat R please
Go to the top of the page
  Insert nick Quick quote
+Quote Post
post Aug 8 2016, 16:57:38
Post #34

Три Литра
***
Group: Завсегдатай
Posts: 210
Releases: 1
On Forums: 12 years 8 months
Thanks: 141 time(s)
Sweden


Opeth после 2008 года УГ.
Новый альбом тому очередное подтверждение


Thanks:
(1) Thrashman,
Go to the top of the page
  Insert nick Quick quote
+Quote Post
post Aug 8 2016, 17:24:02
Post #35

на аватаре не я
**************
Group: Металариец
Posts: 4,889
Releases: 7
From: "Самопровозглашенная ДНР" (с)
On Forums: 10 years 8 months
Thanks: 2399 time(s)
Russian Federation


ЦИТАТА(z2n @ Aug 8 2016, 19:57:38) *
Opeth после 2008 года УГ.
Новый альбом тому очередное подтверждение

Не, ну предыдущий был очень даже ничего.
Go to the top of the page
  Insert nick Quick quote
+Quote Post
post Aug 8 2016, 18:23:08
Post #36

Ω
Group Icon
Group: V.I.P
Posts: 6,604
Releases: 77
From: Kænugarður
On Forums: 13 years 7 months
Thanks: 9845 time(s)
Ukraine


Уж насколько я не перевариваю Опец, этот трек качает. Может даже альбом потыкаю, а вдруг.
Go to the top of the page
  Insert nick Quick quote
+Quote Post
post Aug 14 2016, 09:33:22
Post #37

Правь статус, ####!111
**************
Group: Металариец
Posts: 3,339
Releases: 11
From: South Of Heaven
On Forums: 9 years 6 months
Thanks: 3270 time(s)
Russian Federation


Без Мишиного фирменного гроула Opeth уже давно не тот торт
Go to the top of the page
  Insert nick Quick quote
+Quote Post

2 Pages V  < 1 2
Reply to this topicStart new topic
1 User(s) are reading this topic (1 Guests and 0 Anonymous Users)
0 Members:

 



- Lo-Fi Version Support form
Copyrights and abuse reports form
Time is now: 31st March 2020 - 11:10:54