Welcome Guest ( Log In | Register )

> Armath Sargon - Northern Chronicles Of Worship: Autumn & Winter (2016), 'Black' Metal (D12)
post Aug 18 2016, 02:10:14
Post #1

Serial Uploader
Group Icon
Group: V.I.P
Posts: 36,080
Releases: 34281
From: Lithuania
On Forums: 11 years 3 months
Thanks: 397673 time(s)
Lithuania


(IMG:http://metalarea.org/images/audiocovers/2016_Aug/acov_tid272612_thumb.jpg)

*Artist: Armath Sargon
*Album: Northern Chronicles Of Worship: Autumn & Winter
*Year: 2016
*Genre: 'Black' Metal
*Country: Finland (IMG:http://metalarea.org/forum/style_images/flags/Finland.png)
*Format: mp3@CBR320kbps
*Size: 309MB

Tracklist:
01. And Leaves Fall to the Ground 07:30
02. The Mist that Summons Souls 06:12
03. Autumn 07:47
04. As the Sun Fades Behind the Horizon 07:28
05. From the Shadows 06:30
06. The Solstice Hastening 06:05
07. Perfection (Far Beyond Dreams) 05:08
08. Left Behind (Perfection Complete) 07:05
09. The God of Love 10:52
10. Kivinen Tie 01:09
11. Fading Autumn Days 05:16
12. Winter in the Forest of the North 00:48
13. Son of the North 06:00
14. Winter 04:42
15. Snow Covers All 05:50
16. Tears of the Son 06:31
17. Northern Lands of Frost Flowers 08:07
18. As Dakrness Falls on the Earth 05:44
19. The Bible 05:17
20. Cold Steel 05:39
21. Dear Father 06:39
22. Babylon in Ice 07:05
******************************
Total playing time: 2:13:24


(IMG:http://metalarea.org/images/myspace.png)



Extended info
Lyrical themes: Christianity, God


Technical info
(IMG:http://metalarea.org/images/spectrogram/2016_Aug/f3345d896cdee511a63118599f7c94fb.png)
Input File: 02. The Mist That Summons Souls.mp3
Channels : 2
Sample Rate : 44100
Precision : 16-bit
Duration : 00:06:12.99 = 16448771 samples = 27974.1 CDDA sectors
File Size : 15.1M
Bit Rate : 324k
Sample Encoding: MPEG audio (layer I, II or III)
Comments :
Title=The Mist That Summons Souls
Artist=Armath Sargon
Album=Northern Chronicles Of Worship: Autumn & Winter
Tracknumber=02/11
Year=2016
Discnumber=1



Register


Go to the top of the page
  Insert nick Quick quote
+Quote Post
 
Start new topic
Replies (1 - 3)
post Aug 22 2016, 19:54:34
Post #2

Четыре Литра
****
Group: Металариец
Posts: 365
Releases: 0
From: Transylvania
On Forums: 10 years 5 months
Thanks: 31 time(s)
Russian Federation


(IMG:style_emoticons/default/22.gif) Christianity (IMG:style_emoticons/default/21.gif)


Thanks:
Go to the top of the page
  Insert nick Quick quote
+Quote Post
post Aug 22 2016, 21:49:38
Post #3

Это просто место… где все подошло к концу.
**************
Group: Металариец
Posts: 5,591
Releases: 0
From: Страны Мамонтов
On Forums: 12 years 6 months
Thanks: 1980 time(s)
Antarctica


ЦИТАТА(ddarkthrone @ Aug 22 2016, 22:54:34) *

Материал акуенен, а ты абасрись, 265
Go to the top of the page
  Insert nick Quick quote
+Quote Post
post Sep 19 2016, 08:18:25
Post #4

...Only Death Is Real...
**************
Group: Металариец
Posts: 2,766
Releases: 15
On Forums: 9 years 1 month
Thanks: 1754 time(s)
Antarctica


Тут "акуенно" всё - и "лирика" и "видео". (IMG:style_emoticons/default/crazy.gif) (IMG:style_emoticons/default/crazy.gif) (IMG:style_emoticons/default/crazy.gif)
Go to the top of the page
  Insert nick Quick quote
+Quote Post

Reply to this topicStart new topic
2 User(s) are reading this topic (2 Guests and 0 Anonymous Users)
0 Members:

 



- Lo-Fi Version Support form
Copyrights and abuse reports form
Time is now: 17th September 2019 - 00:03:44