Welcome Guest ( Log In | Register )

> Imperium Dekadenz - Dis Manibvs (2016), Atmospheric Black Metal
post Aug 25 2016, 14:06:25
Post #1

Serial Uploader
Group Icon
Group: V.I.P
Posts: 32,079
Releases: 30394
From: Lithuania
On Forums: 9 years 10 months
Thanks: 349704 time(s)
Lithuania


(IMG:https://metalarea.org/images/audiocovers/2016_Aug/acov_tid273062_thumb.jpg)

*Artist: Imperium Dekadenz
*Album: Dis Manibvs
*Year: 2016
*Genre: Atmospheric Black Metal
*Country: Germany (IMG:https://metalarea.org/forum/style_images/flags/Germany.png)
*Format: mp3@CBR320kbps
*Size: 133MB

Tracklist:
01. In Todesbanden 02:16
02. Only Fragments Of Light 08:32
03. Still I Rise 08:24
04. Dis Manibvs 07:32
05. Pantheon Spells 02:50
06. Vae Victis 05:57
07. Volcano 08:59
08. Somnia 02:40
09. Pure Nocturnal Rome 08:04
10. Seikilos 07:55
******************************
Total playing time: 1:03:09

(IMG:https://metalarea.org/images/myspace.png)


Technical info
(IMG:https://metalarea.org/images/spectrogram/2016_Aug/b2855ed73dff9fd2863b886d467a7278.png)
Input File: 06-imperium_dekadenz-vae_victis-de1d7245.mp3
Channels : 2
Sample Rate : 44100
Precision : 16-bit
Duration : 00:05:56.84 = 15736776 samples = 26763.2 CDDA sectors
File Size : 14.5M
Bit Rate : 324k
Sample Encoding: MPEG audio (layer I, II or III)
Comments :
Title=Vae Victis
Artist=Imperium Dekadenz
Album=Dis Manibvs
Tracknumber=6/10
Year=2016
Genre=138



Register


Вернуться к началу страницы
  Insert nick Quick quote
+Цитировать сообщение
 
Создать новую тему
Replies (1 - 6)
post Aug 25 2016, 17:02:44
Post #2

Правь статус, ####!111
**************
Group: Металариец
Posts: 3,132
Releases: 532
From: Brazil
On Forums: 6 years 2 months
Thanks: 22299 time(s)
Brazil


Register

FLAC


Вернуться к началу страницы
  Insert nick Quick quote
+Цитировать сообщение
post Aug 29 2016, 13:22:00
Post #3

Литр
*
Group: Подсевший
Posts: 70
Releases: 0
On Forums: 10 years 6 months
Thanks: 12 time(s)
Belarus


в основной ветке нет, чуть не пропустил
Вернуться к началу страницы
  Insert nick Quick quote
+Цитировать сообщение
post Aug 29 2016, 16:43:17
Post #4

.
**************
Group: Металариец
Posts: 2,386
Releases: 1
On Forums: 9 years 9 months
Thanks: 4895 time(s)
Unknown


Вернуться к началу страницы
  Insert nick Quick quote
+Цитировать сообщение
post Sep 6 2017, 08:55:08
Post #5

TomheT
**************
Group: Металариец
Posts: 4,172
Releases: 75
From: Малоярославец
On Forums: 10 years 3 weeks
Thanks: 16281 time(s)
Russian Federation


Flac Rip mp3*320kbps (EAC+lame 3.93.1+scans)-209Mb
Register


Thanks:
Вернуться к началу страницы
  Insert nick Quick quote
+Цитировать сообщение
post Sep 6 2017, 13:11:18
Post #6

Семь Литров
*******
Group: Металариец
Posts: 718
Releases: 0
On Forums: 9 years 1 month
Thanks: 259 time(s)
Antarctica


Не понравился.
Вернуться к началу страницы
  Insert nick Quick quote
+Цитировать сообщение
post Dec 6 2017, 18:50:35
Post #7

Правь статус, ####!111
**************
Group: Металариец
Posts: 3,209
Releases: 9
From: Москва и МО
On Forums: 11 years 9 months
Thanks: 772 time(s)
Russian Federation


Что-то совсем мало комментов.
Вроде хорошо, но раньше было прям вообще крутейше. Не знаю даже, может чего-то не хватает. Но, с другой стороны, не шедевры же каждый раз печатать - это нереально )
Вернуться к началу страницы
  Insert nick Quick quote
+Цитировать сообщение

ОтветитьСоздать новую тему
2 User(s) are reading this topic (2 Guests and 0 Anonymous Users)
0 Members:

 



- Lo-Fi Version Support form
Copyrights and abuse reports form
Time is now: 21st April 2018 - 23:52:58