Welcome Guest ( Log In | Register )

> Nocturnal Hollow - Deathless And Fleshless (2016), Death Metal
post Aug 28 2016, 15:26:38
Post #1

Serial Uploader
Group Icon
Group: V.I.P
Posts: 39,559
Releases: 37683
From: Lithuania
On Forums: 14 years 7 months
Thanks: 474207 time(s)
Lithuania


(IMG:http://metalarea.org/images/audiocovers/2016_Aug/acov_tid273231_thumb.jpg)

*Artist: Nocturnal Hollow
*Album: Deathless And Fleshless
*Year: 2016
*Genre: Death Metal
*Country: Venezuela (IMG:http://metalarea.org/forum/style_images/flags/Venezuela.png)
*Format: mp3@CBR320kbps
*Size: 90MB

Tracklist:
01. Spawn Of The Possessed
02. As Blood Flows
03. The Incantation Of Astaroth
04. Devilish Blood
05. Necromantial Sin
06. The Crypt
07. Beyond Death
08. The Blackest Sorrow
09. Hammer Of God
10. Your Curse...Your Death
******************************
Total playing time: 37:06



Technical info
(IMG:http://metalarea.org/images/spectrogram/2016_Aug/55a9fc5de16ac62c8b1b7d0c581886ee.png)
Input File: Nocturnal Hollow - Deathless and Fleshless - 02 As Blood Flows.mp3
Channels : 2
Sample Rate : 44100
Precision : 16-bit
Duration : 00:03:30.80 = 9296324 samples = 15810.1 CDDA sectors
File Size : 8.59M
Bit Rate : 326k
Sample Encoding: MPEG audio (layer I, II or III)
Comments :
Title=As Blood Flows
Artist=Nocturnal Hollow
Album=Deathless and Fleshless
Tracknumber=2
Year=2016



Register


Go to the top of the page
  Insert nick Quick quote
+Quote Post
 
Start new topic
Replies (1 - 3)
post Aug 29 2016, 21:15:55
Post #2

Dead Head Dead
*****
Group: Металариец
Posts: 452
Releases: 29
From: Hell
On Forums: 13 years 7 months
Thanks: 818 time(s)
Czech Republic


Go to the top of the page
  Insert nick Quick quote
+Quote Post
post Dec 31 2016, 05:33:04
Post #3

Going home. Flying high.
**************
Group: Металариец
Posts: 13,612
Releases: 0
From: The Land of Shadows
On Forums: 16 years 5 months
Thanks: 30463 time(s)
Russian Federation


зеркало c dw
Register


а чего тут каментов нет? жирный старошкольный metal же! и, ведь, с закосом под шведятину, кмк. добротно сделано.


Go to the top of the page
  Insert nick Quick quote
+Quote Post
post Aug 29 2017, 22:29:26
Post #4

Шесть Литров
******
Group: Металариец
Posts: 511
Releases: 0
From: германия
On Forums: 14 years 1 month
Thanks: 186 time(s)
Russian Federation


круть
Go to the top of the page
  Insert nick Quick quote
+Quote Post

Reply to this topicStart new topic
1 User(s) are reading this topic (1 Guests and 0 Anonymous Users)
0 Members:

 



- Lo-Fi Version Support form
Copyrights and abuse reports form
Time is now: 4th February 2023 - 17:38:51