Welcome Guest ( Log In | Register )

> Beyond Vendetta - Beyond Vendetta (2016), Groove/Death Metal
post Aug 29 2016, 16:22:51
Post #1

Serial Uploader
Group Icon
Group: V.I.P
Posts: 34,776
Releases: 33004
From: Lithuania
On Forums: 10 years 10 months
Thanks: 377122 time(s)
Lithuania


(IMG:http://metalarea.org/images/audiocovers/2016_Aug/acov_tid273266_thumb.jpg)

*Artist: Beyond Vendetta
*Album: Beyond Vendetta
*Year: 2016
*Genre: Groove/Death Metal
*Country: Australia (IMG:http://metalarea.org/forum/style_images/flags/Australia.png)
*Format: mp3@CBR320kbps
*Size: 140MB

Tracklist:
01. Paradoxia
02. First Breath
03. Foundations
04. Revulsion
05. Secure The Tethers
06. Minds Of The Powerful
07. Puppets Of Persuasion
08. No Way To Die
09. World Of Decay
10. The Fall
11. Humanity Has Failed
******************************
Total playing time: 57:18



Technical info
(IMG:http://metalarea.org/images/spectrogram/2016_Aug/b4d20913cfa0ce487fb249b14cf76d7c.png)
Input File: 02. First Breath.mp3
Channels : 2
Sample Rate : 44100
Precision : 16-bit
Duration : 00:05:31.08 = 14600804 samples = 24831.3 CDDA sectors
File Size : 13.7M
Bit Rate : 331k
Sample Encoding: MPEG audio (layer I, II or III)
Comments :
Title=First Breath
Artist=Beyond Vendetta
Album=Beyond Vendetta
Tracknumber=02/11
Year=2016



Register


Go to the top of the page
  Insert nick Quick quote
+Quote Post
 
Start new topic
Replies (1 - 9)
post Aug 29 2016, 18:33:31
Post #2

Три Литра
***
Group: Завсегдатай
Posts: 211
Releases: 0
From: Минск
On Forums: 7 years 11 months
Thanks: 134 time(s)
Russian Federation


Файл номер 45244644 не найден. File not found.
Go to the top of the page
  Insert nick Quick quote
+Quote Post
post Aug 29 2016, 18:47:07
Post #3

Восемь Литров
********
Group: Металариец
Posts: 868
Releases: 317
From: Саранск
On Forums: 7 years 11 months
Thanks: 2410 time(s)
Russian Federation


Где музон? Не пашет ссылка,аллё!
Go to the top of the page
  Insert nick Quick quote
+Quote Post
post Aug 29 2016, 20:43:44
Post #4

_ - = # Thrashogolic # = - _ ... а давайте поржём все вместе
**************
Group: Металариец
Posts: 21,090
Releases: 4444
From: 404
On Forums: 8 years 10 months
Thanks: 27436 time(s)
Ukraine


Спасибо BULDOZER
Register


Go to the top of the page
  Insert nick Quick quote
+Quote Post
post Sep 1 2016, 19:10:18
Post #5

Девять Литров
*********
Group: Металариец
Posts: 948
Releases: 52
On Forums: 12 years 1 month
Thanks: 808 time(s)
Ukraine


Среднетемповый, в меру вязкий кач. Всем любителям годного грува мои наилучшие рекомендации. (IMG:style_emoticons/default/20.gif)


Go to the top of the page
  Insert nick Quick quote
+Quote Post
post Sep 1 2016, 21:18:50
Post #6

ядерщик-мясогруз
***
Group: Завсегдатай
Posts: 279
Releases: 4
On Forums: 10 years 1 month
Thanks: 149 time(s)
Russian Federation


(IMG:style_emoticons/default/20.gif) альбом то годный, такой льющийся кач из трека в трек.отличное начало осени
Go to the top of the page
  Insert nick Quick quote
+Quote Post
post Oct 28 2016, 21:45:46
Post #7

Правь статус, ####!111
**************
Group: Металариец
Posts: 6,624
Releases: 0
From: Москва
On Forums: 9 years 8 months
Thanks: 12280 time(s)
Russian Federation


Register
320
Go to the top of the page
  Insert nick Quick quote
+Quote Post
post Apr 15 2019, 17:53:41
Post #8

Девять Литров
*********
Group: Металариец
Posts: 948
Releases: 52
On Forums: 12 years 1 month
Thanks: 808 time(s)
Ukraine


Перезалейте кто-нить в 320 (IMG:style_emoticons/default/6.gif)
Go to the top of the page
  Insert nick Quick quote
+Quote Post
post Apr 15 2019, 23:52:29
Post #9

Правь статус, ####!111
**************
Group: Металариец
Posts: 2,201
Releases: 0
On Forums: 3 years 11 months
Thanks: 2225 time(s)
Russian Federation


ЦИТАТА(lortz @ Apr 15 2019, 21:53:41) *
Перезалейте кто-нить в 320 (IMG:style_emoticons/default/6.gif)

То что было в шапке скорее всего апконверт со 192кб, так что честных 320 нет, на myzuka.club есть шапочные "320".
Go to the top of the page
  Insert nick Quick quote
+Quote Post
post Apr 16 2019, 10:51:19
Post #10

MDM-Thrash Metal
**************
Group: Металариец
Posts: 7,846
Releases: 437
From: Одесса
On Forums: 11 years 8 months
Thanks: 14625 time(s)
Ukraine


Go to the top of the page
  Insert nick Quick quote
+Quote Post

Reply to this topicStart new topic
2 User(s) are reading this topic (2 Guests and 0 Anonymous Users)
0 Members:

 



- Lo-Fi Version Support form
Copyrights and abuse reports form
Time is now: 19th April 2019 - 01:18:49