Welcome Guest ( Log In | Register )

> Dopethrone - 1312 [ep] (2016), Stoner/Sludge/Doom Metal
post Aug 30 2016, 02:45:32
Post #1

Правь статус, ####!111
**************
Group: Металариец
Posts: 3,497
Releases: 1809
From: Земля
On Forums: 7 years 6 months
Thanks: 10013 time(s)
Russian Federation


(IMG:https://metalarea.org/images/audiocovers/2016_Aug/acov_tid273280_thumb.jpg)

*Artist: Dopethrone
*Album: 1312 [ep]
*Year: 2016
*Genre: Stoner/Sludge/Doom Metal
*Country: Canada (IMG:https://metalarea.org/forum/style_images/flags/Canada.png)
*Format: mp3@CBR320kbps
*Size: 33MB

Tracklist:
1. Shot Down 3:36
2. Drifter 4:37
3. Skag Reek 3:39
******************************
Total playing time: 11:52



Technical info
(IMG:https://metalarea.org/images/spectrogram/2016_Aug/579f8c73d3d3c668cf3964b31acddb90.png)
Input File: DOPETHRONE - 1312 - 01 SHOT DOWN.mp3
Channels : 2
Sample Rate : 44100
Precision : 16-bit
Duration : 00:03:36.18 = 9533670 samples = 16213.7 CDDA sectors
File Size : 8.84M
Bit Rate : 327k
Sample Encoding: MPEG audio (layer I, II or III)
Comments :
Title=SHOT DOWN
Artist=DOPETHRONE
Album=1312
Tracknumber=1
Year=2016



Register


Go to the top of the page
  Insert nick Quick quote
+Quote Post
 
Start new topic
Replies (1 - 5)
post Aug 30 2016, 23:39:50
Post #2

:3
**************
Group: Металариец
Posts: 4,754
Releases: 104
From: Novosibirsk
On Forums: 14 years 1 week
Thanks: 3858 time(s)
Russian Federation


Не прогрессируют товарищи, всё одно да потому гоняют. Пару раз послушать можно, не больше.
Go to the top of the page
  Insert nick Quick quote
+Quote Post
post Aug 31 2016, 13:52:16
Post #3

Правь статус, ####!111
**************
Group: Металариец
Posts: 49,222
Releases: 870
On Forums: 12 years 3 months
Thanks: 44716 time(s)
Russian Federation


А зачем прогресс в такой музыке? Ты еще у фистулы развития потребуй. Соль такой музыки _ в неизменности и постоянстве качества


Thanks:
(1) KINO,
Go to the top of the page
  Insert nick Quick quote
+Quote Post
post Sep 20 2016, 21:18:46
Post #4

Правь статус, ####!111
**************
Group: Металариец
Posts: 49,222
Releases: 870
On Forums: 12 years 3 months
Thanks: 44716 time(s)
Russian Federation


Оуенно! Грязный звук, такой же вокал, да и музыка...Настроение упадничества, болезни и агонизирующей наркомании, так великолепно поданные в 90-х в американском сладже и сейчас частично терзаемые Фистулой воплощены в этих трёх трэках. Нет просвета, лишь вены, иглы, нищета, шлюхи, помойки, свалки и серое небо. Воистину, вскормленные в гетто, несут в себе ту энергетику всю жизнь. Три песни, а сколько в них кайфа. Drifter вообще piсдос.

Любители стиля, не проходить мимо. Наряду с полнформатом Фистулы - лучшее в подстиле за год.
Go to the top of the page
  Insert nick Quick quote
+Quote Post
post May 9 2018, 06:50:13
Post #5

:3
**************
Group: Металариец
Posts: 4,754
Releases: 104
From: Novosibirsk
On Forums: 14 years 1 week
Thanks: 3858 time(s)
Russian Federation


Go to the top of the page
  Insert nick Quick quote
+Quote Post
post May 22 2018, 19:22:17
Post #6

Правь статус, ####!111
**************
Group: Металариец
Posts: 49,222
Releases: 870
On Forums: 12 years 3 months
Thanks: 44716 time(s)
Russian Federation


Этот трэк - один из самых крутейших у группы. Жду - не дождусь пятницы, когда выйдет лучший альбом года.

Real Deal Ain`t Real!

Go to the top of the page
  Insert nick Quick quote
+Quote Post

Reply to this topicStart new topic
1 User(s) are reading this topic (1 Guests and 0 Anonymous Users)
0 Members:

 



- Lo-Fi Version Support form
Copyrights and abuse reports form
Time is now: 29th September 2021 - 03:14:35