Welcome Guest ( Log In | Register )

> Spaceking - The Piper At The Gates Of Stone (2016), Instrumental Stoner/Progressive/Post-Metal (D4)
post Sep 11 2016, 11:08:41
Post #1

Thrash, Beer & Violence
**************
Group: Металариец
Posts: 5,503
Releases: 2772
From: Крестов Брод (Russland)
On Forums: 13 years 3 months
Thanks: 40596 time(s)
Russian Federation


(IMG:http://metalarea.org/images/audiocovers/2016_Sep/acov_tid274024_thumb.jpg)

*Artist: Spaceking
*Album: The Piper At The Gates Of Stone
*Year: 2016
*Genre: Instrumental Stoner/Progressive/Post-Metal
*Country: Russian Federation (IMG:http://metalarea.org/forum/style_images/flags/Russian%20Federation.png)
*Format: mp3@CBR320kbps
*Size: 98MB

Tracklist:
1. Ruins 05:58
2. Metamorph 07:49
3. Silent Widow 05:51
4. 44 04:18
5. Dwarf 05:02
6. The Piper at the Gates of Stone 06:06
7. Collapse 07:01
******************************
Total playing time: 42:05

ВКонтакТ


Technical info
(IMG:http://metalarea.org/images/spectrogram/2016_Sep/0e3120eabfba233b9e454a6d5b0c31bc.png)
Input File: 01 Ruins.mp3
Channels : 2
Sample Rate : 44100
Precision : 16-bit
Duration : 00:05:58.46 = 15808042 samples = 26884.4 CDDA sectors
File Size : 14.5M
Bit Rate : 324k
Sample Encoding: MPEG audio (layer I, II or III)
Comments :
Title=Ruins
Artist=Spaceking
Album=The Piper at the Gates of Stone
Tracknumber=1
Year=2016



Register


Go to the top of the page
  Insert nick Quick quote
+Quote Post
 
Start new topic
Replies (1 - 1)
post Jan 13 2021, 13:46:02
Post #2

И Ван Дамм По Делам Вашим!
**************
Group: Металариец
Posts: 19,770
Releases: 26
On Forums: 12 years 6 months
Thanks: 11112 time(s)
Honduras


Недавно от инструментального миника Nuclear Power Trio протащился и вот опять отличный инструментал.
Go to the top of the page
  Insert nick Quick quote
+Quote Post

Reply to this topicStart new topic
2 User(s) are reading this topic (2 Guests and 0 Anonymous Users)
0 Members:

 



- Lo-Fi Version Support form
Copyrights and abuse reports form
Time is now: 16th January 2021 - 03:54:55