Welcome Guest ( Log In | Register )

> CrystalMoors - The Mountain Will Forgive Us (2016), Celtic/Pagan Black Metal
post Sep 13 2016, 01:42:58
Post #1

Serial Uploader
Group Icon
Group: V.I.P
Posts: 33,569
Releases: 31832
From: Lithuania
On Forums: 10 years 7 months
Thanks: 363361 time(s)
Lithuania


(IMG:http://metalarea.org/images/audiocovers/2016_Sep/acov_tid274146_thumb.jpg)

*Artist: CrystalMoors
*Album: The Mountain Will Forgive Us
*Year: 2016
*Genre: Celtic/Pagan Black Metal
*Country: Spain (IMG:http://metalarea.org/forum/style_images/flags/Spain.png)
*Format: mp3@CBR320kbps
*Size: 186MB

Tracklist:
01. Memories
02. Devotio Iberica
03. Over The Same Land
04. The Mountain
05. A Last Breath Of Peace
06. The Oldest One
07. The Eye Of The Tyrant
08. When The Caves Spoke
09. A Man Under Wolfskin
10. Over The Same Land (Acoustic Version)
11. The Mountain (Acoustic Version)
12. Defendiendo Amaia (Acoustic Version)
13. Since Old Times (Acoustic Version)
14. The Mountain Will Forgive Us (Acoustic Version)
15. Greyland Labaro (Acoustic Version)
16. Crown Of Wolves (Acoustic Version)
17. Nabia Orebia (Acoustic Version)
******************************
Total playing time: 1:17:26


(IMG:http://metalarea.org/images/myspace.png)



Technical info
(IMG:http://metalarea.org/images/spectrogram/2016_Sep/5adb5e9ddb9c58302ef9a1c2498c049a.png)
Input File: 02. Devotio Iberica.mp3
Channels : 2
Sample Rate : 44100
Precision : 16-bit
Duration : 00:05:52.25 = 15534005 samples = 26418.4 CDDA sectors
File Size : 14.6M
Bit Rate : 331k
Sample Encoding: MPEG audio (layer I, II or III)
Comments :
Title=Devotio Iberica
Artist=CrystalMoors
Album=The Mountain Will Forgive Us
Tracknumber=02/17
Year=2016



Register


Go to the top of the page
  Insert nick Quick quote
+Quote Post
 
Start new topic
Replies (1 - 4)
post Sep 13 2016, 13:13:07
Post #2

Аннигилятор пивА
Group Icon
Group: V.I.P
Posts: 51,467
Releases: 16165
From: Koenigsberg - TILZIT
On Forums: 12 years 7 months
Thanks: 351432 time(s)
Russian Federation


178MB/320
Register


Go to the top of the page
  Insert nick Quick quote
+Quote Post
post Sep 13 2016, 14:46:58
Post #3

Маньяк
**********
Group: Металариец
Posts: 1,037
Releases: 0
On Forums: 7 years 8 months
Thanks: 446 time(s)
Unknown


Go to the top of the page
  Insert nick Quick quote
+Quote Post
post Nov 9 2018, 04:30:39
Post #4

Split Backup Copy
**************
Group: Металариец
Posts: 5,125
Releases: 243
From: с. Мизоново, Ишимский Район, Тюменская область
On Forums: 11 years 1 month
Thanks: 3375 time(s)
Russian Federation


Перезалейте, пожалуйста.
Go to the top of the page
  Insert nick Quick quote
+Quote Post
post Nov 9 2018, 18:55:07
Post #5

ретроград
**************
Group: Металариец
Posts: 4,661
Releases: 175
On Forums: 11 years 7 months
Thanks: 6768 time(s)
Vatican City


Register


Go to the top of the page
  Insert nick Quick quote
+Quote Post

Reply to this topicStart new topic
1 User(s) are reading this topic (1 Guests and 0 Anonymous Users)
0 Members:

 



- Lo-Fi Version Support form
Copyrights and abuse reports form
Time is now: 18th January 2019 - 17:36:44