Welcome Guest ( Log In | Register )

> TesseracT - Errai [ep] (2016), Atmospheric Progressive Metal/Rock (D8)
post Sep 15 2016, 17:43:29
Post #1

Аннигилятор пивА
Group Icon
Group: V.I.P
Posts: 52,356
Releases: 16556
From: Koenigsberg - TILZIT
On Forums: 12 years 11 months
Thanks: 360775 time(s)
Russian Federation


(IMG:https://metalarea.org/images/audiocovers/2016_Sep/acov_tid274335_thumb.jpg)

*Artist: TesseracT
*Album: Errai [ep]
*Year: 2016
*Genre: Atmospheric Progressive Metal/Rock
*Country: United Kingdom (IMG:https://metalarea.org/forum/style_images/flags/United%20Kingdom.png)
*Format: mp3@CBR320kbps
*Size: 46MB

Tracklist:
1. Survival
2. Cages
3. Tourniquet
4. Seven Names
******************************
Total playing time: 18:47

Extended info
Featuring four tracks taken from the band's 2015 studio album, Polaris, and re-imagined by the band’s long time live producer and sound engineer Aidan O’Brien
Dan Tompkins - “It's been fantastic to re-visit & re-work the vocals to some of the Polaris tracks from a different angle and with the benefit of time and space. The normal process of writing TesseracT songs starts with the creation of the music followed by the lyrical content; this time Acle and Aidan have stripped away the music and re-created the songs based around the vocals. As a result this has allowed much more breathing space between both and also highlighted much more detail in the performance."



Technical info
(IMG:https://metalarea.org/images/spectrogram/2016_Sep/77c603d272b5ec000e803a45ce53dfd3.png)
Input File: 02 - Cages (Errai).mp3
Channels : 2
Sample Rate : 44100
Precision : 16-bit
Duration : 00:04:11.72 = 11100676 samples = 18878.7 CDDA sectors
File Size : 10.1M
Bit Rate : 322k
Sample Encoding: MPEG audio (layer I, II or III)
Comments :
Title=Cages (Errai)
Artist=TesseracT
Album=Errai
Tracknumber=2
Year=2016



Register


Go to the top of the page
  Insert nick Quick quote
+Quote Post
 
Start new topic
Replies (1 - 3)
post Sep 16 2016, 19:22:02
Post #2

Два Литра
**
Group: Завсегдатай
Posts: 176
Releases: 97
On Forums: 6 years 8 months
Thanks: 2010 time(s)
Unknown


"Страна: United States"

Когда это они успели стать USA из UK?
Go to the top of the page
  Insert nick Quick quote
+Quote Post
post Sep 16 2016, 19:49:42
Post #3

В чистоте и единстве:мысль-слово-дело
**************
Group: Металариец
Posts: 2,351
Releases: 9
From: Киев
On Forums: 11 years 10 months
Thanks: 1320 time(s)
Ukraine


aesteticvice,
исправь на UK
Go to the top of the page
  Insert nick Quick quote
+Quote Post
post Mar 15 2019, 15:05:53
Post #4

Правь статус, ####!111
**************
Group: Металариец
Posts: 3,475
Releases: 9
From: Москва и МО
On Forums: 12 years 10 months
Thanks: 867 time(s)
Russian Federation


Отличные акустические варианты песен с прошлого шикарного альбома. Позволяют погрустить с этих песен на новый лад.
Классный релиз!
Go to the top of the page
  Insert nick Quick quote
+Quote Post

Reply to this topicStart new topic
1 User(s) are reading this topic (1 Guests and 0 Anonymous Users)
0 Members:

 



- Lo-Fi Version Support form
Copyrights and abuse reports form
Time is now: 26th May 2019 - 08:33:20