Welcome Guest ( Log In | Register )

> 

Здесь релизы с живыми прямыми ссылками на lossless

> Jarnvidr - Förqwäwd (2016), Black Metal
post Sep 17 2016, 15:30:08
Post #1

Правь статус, ####!111
**************
Group: Металариец
Posts: 2,360
Releases: 1906
From: Praha
On Forums: 7 years 6 months
Thanks: 50814 time(s)
Czech Republic


(IMG:http://metalarea.org/images/audiocovers/2016_Sep/acov_tid274469_thumb.jpg)

*Artist: Jarnvidr
*Album: Förqwäwd
*Year: 2016
*Genre: Black Metal
*Country: Sweden (IMG:http://metalarea.org/forum/style_images/flags/Sweden.png)
*Format: mp3@CBR320kbps
*Size: 99MB

Tracklist:
1. Resurgam (Intro) 01:02
2. För Evärdliga Tider 02:56
3. Svarta Stjärnvalv 03:16
4. Första Ritualen 01:23
5. Att Bemästra Skaldekonsten 03:51
6. Surtalogi / Världsbrand 02:46
7. Eitrdropar 03:58
8. Kultförbund 03:24
9. Andra Ritualen 01:32
10. Helgelundar 03:34
11. När Gudarna Tystnar 04:14
12. Slättbygdens Folk 04:27
13. Bortsvuren (Outro) 01:55
******************************
Total playing time: 38:18

Extended info
Darker Than Black – DTB 245
12'' LP limited to 300 copies
KVLT!


Technical info
(IMG:http://metalarea.org/images/spectrogram/2016_Sep/82fc1a5682e5b12e41736dd2c766fe3e.png)
Input File: B1. Kultf?rbund.mp3
Channels : 2
Sample Rate : 44100
Precision : 16-bit
Duration : 00:03:23.28 = 8964692 samples = 15246.1 CDDA sectors
File Size : 8.27M
Bit Rate : 326k
Sample Encoding: MPEG audio (layer I, II or III)
Comments :
Title=Kultförbund
Artist=Jarnvidr
Album=Förqwäwd
Tracknumber=08/13
Year=2016
Genre=Black Metal



Register


Go to the top of the page
  Insert nick Quick quote
+Quote Post
 
Start new topic
Replies (1 - 7)
post Sep 17 2016, 17:43:07
Post #2

the faceless one
Group Icon
Group: S-moderation team
Posts: 9,469
Releases: 1959
On Forums: 13 years 2 months
Thanks: 119396 time(s)
Russian Federation


Прямая ссылка -
Register


Go to the top of the page
  Insert nick Quick quote
+Quote Post
post Sep 18 2016, 21:37:26
Post #3

Правь статус, ####!111
**************
Group: Металариец
Posts: 49,304
Releases: 878
On Forums: 12 years 4 months
Thanks: 44947 time(s)
Russian Federation


Отличный северный блэк метал, морозный, инеистый, злой и атмосферный. Ничего нового, да и копипаст местами пробегает, но душевно и цепляет.
Go to the top of the page
  Insert nick Quick quote
+Quote Post
post Sep 19 2016, 13:50:45
Post #4

While Waiting the Worms
**********
Group: Металариец
Posts: 1,390
Releases: 0
On Forums: 7 years 10 months
Thanks: 2121 time(s)
Unknown


прослушивание альбома не стало бездарно потраченным временем, но и удовольствия не доставило.
100500 раз уже игранные-переигранные риффы. очень шаблонно, однообразно и предсказуемо. напоминает Likvann, но норвежцы ещё примитивнее.
среднестатистический шведский БМ в духе старой школы. больше сказать нечего.
Go to the top of the page
  Insert nick Quick quote
+Quote Post
post Sep 19 2016, 21:34:28
Post #5

Четыре Литра
****
Group: Металариец
Posts: 314
Releases: 0
On Forums: 15 years 3 months
Thanks: 189 time(s)
Belarus




Thanks:
Go to the top of the page
  Insert nick Quick quote
+Quote Post
post Sep 21 2016, 10:44:34
Post #6

Necromancer
Group Icon
Group: Curation team
Posts: 11,046
Releases: 271
From: Зеленоград
On Forums: 15 years 3 weeks
Thanks: 8919 time(s)
Russian Federation


Прошу меня простить, но я не оценил альбом. Мне он показался скучным и не интересным. (IMG:style_emoticons/default/21.gif)
Go to the top of the page
  Insert nick Quick quote
+Quote Post
post Oct 31 2016, 13:09:25
Post #7

Правь статус, ####!111
**************
Group: Металариец
Posts: 2,976
Releases: 423
On Forums: 13 years 11 months
Thanks: 14406 time(s)
Germany


320 kbps + scans
Register


Go to the top of the page
  Insert nick Quick quote
+Quote Post
post Feb 13 2019, 16:39:09
Post #8

Правь статус, ####!111
Group Icon
Group: S-moderation team
Posts: 22,017
Releases: 1443
On Forums: 10 years 8 months
Thanks: 103864 time(s)
Unknown


Register


Thanks:
Go to the top of the page
  Insert nick Quick quote
+Quote Post

Reply to this topicStart new topic
1 User(s) are reading this topic (1 Guests and 0 Anonymous Users)
0 Members:

 



- Lo-Fi Version Support form
Copyrights and abuse reports form
Time is now: 28th October 2021 - 22:12:40