Welcome Guest ( Log In | Register )

> Battle Dagorath - I - Dark Dragons Of The Cosmos (2016), Atmospheric Black Metal/Ambient
post Sep 19 2016, 21:18:04
Post #1

Правь статус, ####!111
**************
Group: Металариец
Posts: 3,345
Releases: 676
From: Brazil
On Forums: 6 years 9 months
Thanks: 26611 time(s)
Brazil


(IMG:http://metalarea.org/images/audiocovers/2016_Sep/acov_tid274578_thumb.jpg)

*Artist: Battle Dagorath
*Album: I - Dark Dragons Of The Cosmos
*Year: 2016
*Genre: Atmospheric Black Metal/Ambient
*Country: United States (IMG:http://metalarea.org/forum/style_images/flags/United%20States.png)
*Format: mp3@CBR320kbps
*Size: 134MB

Tracklist:
1. From the Black Sun's Fire 03:12
2. Phantom Horizons Beyond 13:50
3. Return to Gates of Dawn 13:01
4. Through the Rite of the Stars 13:54
5. Transfixion of the Spheres 11:21
6. Psychic Abduction 02:27
******************************
Total playing time: 57:45



Extended info
Lineup:
BSB - Guitars, Bass, Vocals, Drums
Vinterriket - Keyboards

After some silence Battle Dagorath returns with their fourth full-length album, an inspirational & evocative Opus of eccentric Black Art entitled “Dark Dragons of the Cosmos”. This cyclic bombastic journey is an ode to the serpent that resides in the black sky above us. Six royal symbols that echo the Omens of celestial and atmospheric phenomena and the cataclysmic order of the stars that manifests into our collective unconscious. The undiscovered black sun is used to illuminate the dissolution of the body, the divine infinity and the forms of our magical essence. DDOTC is devotion and catharsis through worship of our ancient powers and magnetism.

This is part I of a two-part release with part II coming later this year.
credits
releases September 30, 2016


Technical info
(IMG:http://metalarea.org/images/spectrogram/2016_Sep/e098c26eb75d3f7f54d4706b1b175bf4.png)
Input File: 02 Phantom Horizons Beyond.mp3
Channels : 2
Sample Rate : 44100
Precision : 16-bit
Duration : 00:13:50.61 = 36630077 samples = 62296 CDDA sectors
File Size : 33.4M
Bit Rate : 322k
Sample Encoding: MPEG audio (layer I, II or III)
Comments :
Title=Phantom Horizons Beyond
Artist=Battle Dagorath
Album=I - Dark Dragons Of The Cosmos
Tracknumber=2
Year=2016



Register


Go to the top of the page
  Insert nick Quick quote
+Quote Post
 
Start new topic
Replies (1 - 9)
post Sep 20 2016, 13:52:56
Post #2

Русь Понад Усе!
**************
Group: Металариец
Posts: 4,087
Releases: 15
From: Украина
On Forums: 11 years 2 months
Thanks: 1576 time(s)
Ukraine


Оперативно, главное дата 30 сентября и не транскод это круто (IMG:style_emoticons/default/bye.gif)
Go to the top of the page
  Insert nick Quick quote
+Quote Post
post Sep 20 2016, 16:43:13
Post #3

ME[ta]LLOMAN
**************
Group: Металариец
Posts: 4,871
Releases: 3
From: Hughes'sRegion\Avdeyevka
On Forums: 12 years 6 months
Thanks: 1769 time(s)
Honduras


vk.com
Go to the top of the page
  Insert nick Quick quote
+Quote Post
post Sep 20 2016, 18:47:33
Post #4


***********
Group: Металариец
Posts: 1,639
Releases: 14
From: Казань
On Forums: 9 years 1 month
Thanks: 2082 time(s)
Russian Federation


Люто вкатила эта космическая Одиссея! Черпать Вдохновение, создавая и слушая - это мне нравится!
Шесть Антитварных Квазаров затягивают и сплющивают материю, разбрасывая ядерные блики в непонятные галактики и созвездия. Ослепни от этой Красоты!
Go to the top of the page
  Insert nick Quick quote
+Quote Post
post Sep 20 2016, 21:06:25
Post #5

Шесть Литров
******
Group: Металариец
Posts: 659
Releases: 0
On Forums: 11 years 3 weeks
Thanks: 245 time(s)
Belarus


Фантастический материал представлен американцами.
Go to the top of the page
  Insert nick Quick quote
+Quote Post
post Sep 20 2016, 21:12:41
Post #6

Два Литра
**
Group: Завсегдатай
Posts: 172
Releases: 0
On Forums: 8 years 3 months
Thanks: 67 time(s)
Unknown


Еще прошлый с Винтерикетом на вокале был шедевральный, а этот - закономерное развитие, к великой блэк-метал групе
Go to the top of the page
  Insert nick Quick quote
+Quote Post
post Sep 22 2016, 13:25:34
Post #7

\m/
Group Icon
Group: S-moderation team
Posts: 7,531
Releases: 19
From: Петропавловск-Камчатский
On Forums: 9 years 5 months
Thanks: 6861 time(s)
Russian Federation


Просто космос! Полнейший улёт! (IMG:style_emoticons/default/20.gif)
Есть что-то, почти, от Darkspace.
Go to the top of the page
  Insert nick Quick quote
+Quote Post
post Sep 24 2016, 01:41:50
Post #8

Dark Ambient Shoujo
**********
Group: Металариец
Posts: 1,033
Releases: 1
On Forums: 9 years 10 months
Thanks: 511 time(s)
Russian Federation


Как-то вот я космоса не услышал тут - скорее хтонический мрак. но работа достойная, вне всяких сомнений!
Go to the top of the page
  Insert nick Quick quote
+Quote Post
post Sep 25 2016, 05:02:21
Post #9

кручу наждак
**************
Group: Металариец
Posts: 3,496
Releases: 91
From: Самара
On Forums: 8 years 6 months
Thanks: 2624 time(s)
Russian Federation


Практически идеальный атмоблек.
Go to the top of the page
  Insert nick Quick quote
+Quote Post
post Dec 7 2017, 11:22:45
Post #10

Let's Go Ducks!
**************
Group: Металариец
Posts: 2,279
Releases: 10
From: Khazad-dûm
On Forums: 10 years 9 months
Thanks: 1019 time(s)
Ukraine


Действительно круто, реально хтонический мрак!
Я не фанат всяких клавиш и т.д., но тут как включил, так и понеслась душа в дичайшие дали Вселенной
Go to the top of the page
  Insert nick Quick quote
+Quote Post

Reply to this topicStart new topic
1 User(s) are reading this topic (1 Guests and 0 Anonymous Users)
0 Members:

 



- Lo-Fi Version Support form
Copyrights and abuse reports form
Time is now: 14th November 2018 - 22:56:13