Welcome Guest ( Log In | Register )

> Asphyx - Incoming Death (2016), Death/Doom Metal
post Sep 29 2016, 12:12:09
Post #1

Serial Uploader
Group Icon
Group: V.I.P
Posts: 33,290
Releases: 31565
From: Lithuania
On Forums: 10 years 5 months
Thanks: 360608 time(s)
Lithuania


(IMG:http://metalarea.org/images/audiocovers/2016_Sep/acov_tid275146_thumb.jpg)

*Artist: Asphyx
*Album: Incoming Death
*Year: 2016
*Genre: Death/Doom Metal
*Country: Netherlands (IMG:http://metalarea.org/forum/style_images/flags/Netherlands.png)
*Format: mp3@CBR320kbps
*Size: 111MB

Tracklist:
01. Candiru 02:40
02. Division Brandenburg 03:05
03. Wardroid 04:40
04. The Feeder 04:06
05. It Came From The Skies 03:29
06. The Grand Denial 07:08
07. Incoming Death 01:56
08. Forerunners Of The Apocalypse 03:42
09. Subterra Incognita 05:06
10. Wildland Fire 03:41
11. Death: The Only Immortal 08:09
******************************
Total playing time: 47:42

(IMG:http://metalarea.org/images/myspace.png)



Technical info
(IMG:http://metalarea.org/images/spectrogram/2016_Sep/3c202ede2ee5278ac9991b8785d6a707.png)
Input File: 02-asphyx-division_brandenburg-c3739eee.mp3
Channels : 2
Sample Rate : 44100
Precision : 16-bit
Duration : 00:03:05.20 = 8167408 samples = 13890.1 CDDA sectors
File Size : 7.63M
Bit Rate : 329k
Sample Encoding: MPEG audio (layer I, II or III)
Comments :
Title=Division Brandenburg
Artist=Asphyx
Album=Incoming Death
Tracknumber=2/11
Year=2016
Genre=22



Register


Thanks:
(153) aa144aa, AHBAnep, AlexStorm, andreikun, aorta3, Aresson, as71, Ash_1980, asphyx5, avkruchinin, Ballisargon, Bergthron, berserkr, BERZERK, bowelled, BRUTAL06, Buregon, cancer1974, cesar, Chasm, CRUNCH, DarkHorde, Darkthronefoad, DenisKov, Desert Eagle, DiKobRaZzz, dimitriusk, Dio001, djsema4, DMIYUR, enslaver, Exxie, fabriziomagno, Femto, Fess, Fryz, fticek, fuoco, Galactus, gena, Golfzilla, gwar, Hammaren, hammer, Hellstriker, igore2911, igorzz, Indamage, Infidel, infiltrator, JAWA, jollo, jpvalentim, judaz, kauyumari, kefka, killingod, Kisser, kvetak, KVRT, Lord Noctua, lucifix, Luka, lunaraurora, lyukon, mad, maochen, marilin, maxmagmas, MeathookSeed, Medicate, metala, metalboll, metalfanatic666, mikethebeast, Mist13Signifier, mizantrophist, MMMMM, Molotov, morbidangelo, muskatnuss, nadin85, NappyRob, nekrokilldozer, Noxius, nsmetalhead, nugorod, Old Vyaine, Oldskulthrasher, oldthrashman, oldvarg, Orgasmik, Ostinato, paco6666, Paradayz, Penetralia, Pentium.Disel, Phlebotomized, princeshr, rabindranad, Rakkot, rammstein888, randyhermit, recber, rimfrost, ripper33, Rosen, Ruben, RUDACHUR, ruslanok, Saabath, samokot, Sanc, sandr666, SAPOGi, sarcophagus, satanath, SatanChrist, SatanicPanzer, satanist666, Scuns, SKuzmin, stone88, Strangler, Surt, tamerz, TeamatSE, Thrashman, THROWER666, Thunderbird, Tino, troll_swamp, Typhoid, Ufasas, Unscarted, VALERY, varlam4, varnack, vov7609, vyacheslav, WND, WOLAND, Wolfera, wrath082, wtk.412, WX419, Xor, z2n, Zenial, Варонъ, Герб, Луч, Язва,
Go to the top of the page
  Insert nick Quick quote
+Quote Post
6 Pages V  « < 4 5 6  
Start new topic
Replies (150 - 151)
post Dec 21 2017, 09:22:16
Post #151

Forever Underground
**************
Group: Металариец
Posts: 5,065
Releases: 0
On Forums: 3 years 7 months
Thanks: 4612 time(s)
Unknown


FLAC-rip; from the web, @320:
Register


Thanks:
Go to the top of the page
  Insert nick Quick quote
+Quote Post
post Nov 8 2018, 20:35:45
Post #152

Full-of-Hate
**************
Group: Металариец
Posts: 2,248
Releases: 0
On Forums: 9 years 4 months
Thanks: 1595 time(s)
Russian Federation


Третий вечер подряд коротаю в компании Асфикса.

Творчество группы обладает своим отдельным мощным духом, который складывается из уникального вокала Ван Дюрена и музыкальный структур каноничной европейской школы Death Metal. Под настроение заходит на отличненько. Долбежные боевички как и неспешно размалывающие вещи - единодушны, уместны и приятны слуху.

Претензии к саунду не принимаются, группа звучит - и это главное, как уж и через что они пропустили дорожки на студии дело сугубо личное. Который раз слушаю - все инструменты на месте. Сыграно и записано ровно, живенько, вокал на месте, что чуть не самое главное. Но чет мне сдается, как минимум Ван Дэрен, чтобы издавать такие звуки в свои честные (вопреки) пятьдесят лет, изрядно подбухивает и травокурит. Сука, столько не живут!

Месят как надо, очень классный и материал, и запись, и хоррор-обложка.
Go to the top of the page
  Insert nick Quick quote
+Quote Post

6 Pages V  « < 4 5 6
Reply to this topicStart new topic
1 User(s) are reading this topic (1 Guests and 0 Anonymous Users)
0 Members:

 



- Lo-Fi Version Support form
Copyrights and abuse reports form
Time is now: 17th November 2018 - 23:15:53