Welcome Guest ( Log In | Register )

> Noctem - Haeresis (2016), Black/Death/Thrash Metal (D)
post Sep 29 2016, 12:20:50
Post #1

Serial Uploader
Group Icon
Group: V.I.P
Posts: 36,101
Releases: 34299
From: Lithuania
On Forums: 11 years 3 months
Thanks: 397854 time(s)
Lithuania


(IMG:http://metalarea.org/images/audiocovers/2016_Sep/acov_tid275148_thumb.jpg)

*Artist: Noctem
*Album: Haeresis
*Year: 2016
*Genre: Black/Death/Thrash Metal
*Country: Spain (IMG:http://metalarea.org/forum/style_images/flags/Spain.png)
*Format: mp3@CBR320kbps
*Size: 104MB

Tracklist:
01. Through the Black Temples of Disaster 05:49
02. Auto-da-fé 03:52
03. The Submission Discipline 04:06
04. Blind Devotion 04:55
05. The Dark One 04:18
06. Haeresis 03:29
07. Whispers of the Ancient Gods 04:24
08. Conjuring Degradation and Morbidity 04:26
09. The Paths of the Lustful Abandon 03:29
10. Pactum with the Indomitable Darkness 05:34
******************************
Total playing time: 44:22

(IMG:http://metalarea.org/images/myspace.png)



Technical info
(IMG:http://metalarea.org/images/spectrogram/2016_Sep/c4f6c1b3a42e9984cb668d0b779d74d4.png)
Input File: 02-noctem-auto_da_fe-d6f3b4b2.mp3
Channels : 2
Sample Rate : 44100
Precision : 16-bit
Duration : 00:03:52.72 = 10263084 samples = 17454.2 CDDA sectors
File Size : 9.59M
Bit Rate : 330k
Sample Encoding: MPEG audio (layer I, II or III)
Comments :
Title=Auto da Fe
Artist=Noctem
Album=Haeresis
Tracknumber=2/10
Year=2016
Genre=9



Register


Go to the top of the page
  Insert nick Quick quote
+Quote Post
 
Start new topic
Replies (1 - 9)
post Sep 29 2016, 16:30:37
Post #2

the faceless one
Group Icon
Group: S-moderation team
Posts: 9,228
Releases: 1885
On Forums: 11 years 1 month
Thanks: 111017 time(s)
Russian Federation


Прямая ссылка -
Register


Go to the top of the page
  Insert nick Quick quote
+Quote Post
post Sep 29 2016, 16:31:36
Post #3

::
**************
Group: Металариец
Posts: 2,295
Releases: 3
From: Воронеж
On Forums: 9 years 4 months
Thanks: 1032 time(s)
Russian Federation


Бомбейший альбомище, намного лучше прошлого, да и, пожалуй, позапрошлого!
По звуку показалось, что пошел больший уклон в шведоблэк.
Go to the top of the page
  Insert nick Quick quote
+Quote Post
post Sep 29 2016, 21:05:55
Post #4

MDM-Thrash Metal
**************
Group: Металариец
Posts: 8,687
Releases: 603
From: Одесса
On Forums: 12 years 1 month
Thanks: 17350 time(s)
Ukraine





Go to the top of the page
  Insert nick Quick quote
+Quote Post
post Sep 29 2016, 21:47:47
Post #5

Маньяк
**********
Group: Металариец
Posts: 1,327
Releases: 0
From: Луцьк
On Forums: 11 years 5 months
Thanks: 681 time(s)
Ukraine


Сдается мне, у этой группы Бооольшое будущее...
Go to the top of the page
  Insert nick Quick quote
+Quote Post
post Sep 30 2016, 21:56:05
Post #6

Маньяк
**********
Group: Металариец
Posts: 1,221
Releases: 1
From: Беларусь
On Forums: 11 years 8 months
Thanks: 476 time(s)
Russian Federation


ЦИТАТА(vo140182fav @ Sep 29 2016, 23:47:47) *
Сдается мне, у этой группы Бооольшое будущее...

Ага! Только слышано всё это и переиграно 100 раз
Go to the top of the page
  Insert nick Quick quote
+Quote Post
post Nov 12 2017, 12:58:02
Post #7
BAN
RO till
Sep 29 2019, 00:15:53



no thrash in it. This is a good release overall (IMG:style_emoticons/default/gop_spb.gif)
Go to the top of the page
  Insert nick Quick quote
+Quote Post
post Apr 15 2019, 15:10:56
Post #8

Добрый
**************
Group: Металариец
Posts: 2,736
Releases: 0
On Forums: 1 year 2 months
Thanks: 2569 time(s)
Russian Federation


96 mb/320 kbps
Register
Go to the top of the page
  Insert nick Quick quote
+Quote Post
post Aug 4 2019, 04:35:37
Post #9

Правь статус, ####!111
**************
Group: Металариец
Posts: 3,867
Releases: 945
From: Brazil
On Forums: 7 years 7 months
Thanks: 35067 time(s)
Brazil


Register

FLAC + scans
Go to the top of the page
  Insert nick Quick quote
+Quote Post
post Aug 4 2019, 05:51:53
Post #10

Два Литра
**
Group: Завсегдатай
Posts: 108
Releases: 0
From: ЯРОСЛАВЛЬ
On Forums: 10 years 3 months
Thanks: 10 time(s)
Russian Federation


тоже самое загрузка не идет
Go to the top of the page
  Insert nick Quick quote
+Quote Post

Reply to this topicStart new topic
1 User(s) are reading this topic (1 Guests and 0 Anonymous Users)
0 Members:

 



- Lo-Fi Version Support form
Copyrights and abuse reports form
Time is now: 19th September 2019 - 09:16:43