Welcome Guest ( Log In | Register )

> Frostmoon Eclipse - The Greatest Loss (2016), Black Metal
post Oct 1 2016, 08:54:18
Post #1

Правь статус, ####!111
**************
Group: Металариец
Posts: 2,052
Releases: 1626
From: Praha
On Forums: 6 years 4 months
Thanks: 41585 time(s)
Czech Republic


(IMG:http://metalarea.org/images/audiocovers/2016_Oct/acov_tid275281_thumb.jpg)

*Artist: Frostmoon Eclipse
*Album: The Greatest Loss
*Year: 2016
*Genre: Black Metal
*Country: Italy (IMG:http://metalarea.org/forum/style_images/flags/Italy.png)
*Format: mp3@CBR320kbps
*Size: 96MB

Tracklist:
1. The Greatest Loss 07:26
2. Hell Thousandfold 07:53
3. Noise of the Wheel 06:09
4. Aphotic Acquiescence 05:47
5. The Nihil Speaks 04:00
6. Torn Apart by the Withering Voices of Deceit 10:12
******************************
Total playing time: 41:27



Technical info
(IMG:http://metalarea.org/images/spectrogram/2016_Oct/b7370db42f8d716ce1b1462224069e50.png)
Input File: 02. Hell Thousandfold.mp3
Channels : 2
Sample Rate : 44100
Precision : 16-bit
Duration : 00:07:53.44 = 20878484 samples = 35507.6 CDDA sectors
File Size : 19.1M
Bit Rate : 322k
Sample Encoding: MPEG audio (layer I, II or III)
Comments :
Title=Hell Thousandfold
Artist=Frostmoon Eclipse
Album=The Greatest Loss
Tracknumber=02/06
Year=2016
Genre=Black Metal



Register


Go to the top of the page
  Insert nick Quick quote
+Quote Post
 
Start new topic
Replies (1 - 3)
post Oct 2 2016, 08:18:39
Post #2

the faceless one
Group Icon
Group: S-moderation team
Posts: 9,342
Releases: 1926
On Forums: 12 years 18 hours
Thanks: 115464 time(s)
Russian Federation


Зеркало на облако -
Register


Go to the top of the page
  Insert nick Quick quote
+Quote Post
post Dec 21 2016, 18:42:35
Post #3

antithesis
**************
Group: Металариец
Posts: 3,144
Releases: 34
From: VRN
On Forums: 10 years 2 months
Thanks: 1954 time(s)
Russian Federation


новый Frostmoon Eclipse и ни одного отзыва. ни положительного, ни отрицательного. чёт подозрительно.
*ушёл врываться в сабж*
Go to the top of the page
  Insert nick Quick quote
+Quote Post
post Aug 25 2019, 15:30:22
Post #4

ретроград
**************
Group: Металариец
Posts: 5,099
Releases: 183
On Forums: 13 years 1 month
Thanks: 7761 time(s)
Vatican City


ЦИТАТА(Razorbladeswaltz @ Dec 21 2016, 20:42:35) *
*ушёл врываться в сабж*

Ну че, как там?
Go to the top of the page
  Insert nick Quick quote
+Quote Post

Reply to this topicStart new topic
1 User(s) are reading this topic (1 Guests and 0 Anonymous Users)
0 Members:

 



- Lo-Fi Version Support form
Copyrights and abuse reports form
Time is now: 9th August 2020 - 02:42:08