Welcome Guest ( Log In | Register )

> Хронос - Живём Лишь Раз [ep] (2016), Heavy Metal
post Oct 8 2016, 18:09:29
Post #1

Thrash, Beer & Violence
**************
Group: Металариец
Posts: 5,503
Releases: 2772
From: Крестов Брод (Russland)
On Forums: 12 years 1 week
Thanks: 40122 time(s)
Russian Federation


(IMG:http://metalarea.org/images/audiocovers/2016_Oct/acov_tid275743_thumb.jpg)

*Artist: Хронос
*Album: Живём Лишь Раз [ep]
*Year: 2016
*Genre: Heavy Metal
*Country: Russian Federation (IMG:http://metalarea.org/forum/style_images/flags/Russian%20Federation.png)
*Format: mp3@CBR320kbps
*Size: 36MB

Tracklist:
1. Живём Лишь Раз
2. Быстрее Всех
3. Наплевать
4. Будь Собой
5. Иди Вперёд!
******************************
Total playing time: 15:51

ВКонтакТ

Technical info
(IMG:http://metalarea.org/images/spectrogram/2016_Oct/1d3f26d48b26e83ca5575a3370f32535.png)
Input File: 01. Живём лишь раз.mp3
Channels : 2
Sample Rate : 44100
Precision : 16-bit
Duration : 00:02:43.56 = 7212776 samples = 12266.6 CDDA sectors
File Size : 6.54M
Bit Rate : 320k
Sample Encoding: MPEG audio (layer I, II or III)
Comments :
Title=Живём лишь раз
Artist=РҐСЂРѕРЅРѕСЃ
Album=Живём лишь раз (EP)
Tracknumber=1
Year=2016
Genre=137



Register


Go to the top of the page
  Insert nick Quick quote
+Quote Post
 
Start new topic
Replies (1 - 6)
post Oct 9 2016, 07:03:38
Post #2

Наливай!
**************
Group: Металариец
Posts: 5,420
Releases: 27
From: Москва-Бибирево
On Forums: 11 years 7 months
Thanks: 2638 time(s)
Russian Federation


Пацаны, принял удар на себя - послушал. Не советую (IMG:style_emoticons/default/crazy.gif)


Thanks:
(1) Aresson,
Go to the top of the page
  Insert nick Quick quote
+Quote Post
post Oct 9 2016, 08:32:03
Post #3

brutalcesar
**************
Group: Металариец
Posts: 17,770
Releases: 67
From: Рязань
On Forums: 10 years 8 months
Thanks: 9304 time(s)
Russian Federation


Да не, обычное дело.
Нормально.
Откровенно блювотен только последний трек с обилием паршивых клавишных и поющей девкой.
Go to the top of the page
  Insert nick Quick quote
+Quote Post
post Oct 9 2016, 09:29:44
Post #4

Шесть Литров
******
Group: Металариец
Posts: 576
Releases: 0
From: Беларусь,Минск
On Forums: 9 years 4 months
Thanks: 52 time(s)
Unknown


ЦИТАТА(cesar @ 9th October 2016 - 10:32:03) *
SAPOGi
а как же мы из 80-х!Надо слушать)


Thanks:
(1) SAPOGi,
Go to the top of the page
  Insert nick Quick quote
+Quote Post
post Oct 9 2016, 11:50:39
Post #5

Going home. Flying high.
**************
Group: Металариец
Posts: 12,933
Releases: 0
From: The Land of Shadows
On Forums: 13 years 2 months
Thanks: 21524 time(s)
Russian Federation


зеркало, из сети:
Register


Thanks:
Go to the top of the page
  Insert nick Quick quote
+Quote Post
post Nov 27 2016, 12:32:42
Post #6

Перевозчик
**************
Group: Металариец
Posts: 3,039
Releases: 0
On Forums: 11 years 3 months
Thanks: 664 time(s)
Russian Federation


Последний трек самый классный. В записи приняли участие довольно сильные вокалистки. Да и музыканты основные из Арктиды, так что клавиши паршивыми там быть не могут по определению.

Go to the top of the page
  Insert nick Quick quote
+Quote Post
post Feb 20 2017, 20:04:29
Post #7

Котеги! Нравяцо котеги?
**************
Group: Металариец
Posts: 5,796
Releases: 0
From: Терра Инкогнита
On Forums: 9 years 4 months
Thanks: 2309 time(s)
Russian Federation


Да простит меня 80й, но это даже поинтересней чем последний Хмерфол и Фридом Кол вместе взятые. Будь вокал лучше, булобы ещё интереснее. А так вокал неплохой и не хороший, он просто есть
Go to the top of the page
  Insert nick Quick quote
+Quote Post

Reply to this topicStart new topic
1 User(s) are reading this topic (1 Guests and 0 Anonymous Users)
0 Members:

 



- Lo-Fi Version Support form
Copyrights and abuse reports form
Time is now: 16th October 2019 - 23:39:22