Welcome Guest ( Log In | Register )

> The Depressick - Sub​-​Urban​.​.​. II [demo] (2015), Atmospheric/Depressive Post-Black Metal
post Oct 9 2016, 12:45:56
Post #1

Hellhammer/Celtic Frost/Triptykon
**************
Group: Металариец
Posts: 2,195
Releases: 777
From: Новосибирск
On Forums: 12 years 4 months
Thanks: 6512 time(s)
Russian Federation


(IMG:http://metalarea.org/images/audiocovers/2016_Oct/acov_tid275790_thumb.jpg)

*Artist: The Depressick
*Album: Sub​-​Urban​.​.​. II [demo]
*Year: 2015
*Genre: Atmospheric/Depressive Post-Black Metal
*Country: Mexico (IMG:http://metalarea.org/forum/style_images/flags/Mexico.png)
*Format: mp3@CBR320kbps
*Size: 47MB

Tracklist:
01.Sub-Urban 02:03
02.Nowhere 05:04
03.Inferiority Complex 06:02
04.Misdeeds 07:07
******************************
Total playing time: 20:16



Technical info
(IMG:http://metalarea.org/images/spectrogram/2016_Oct/02dff45a3212b7f9646ea93e934d947a.png)
Input File: The Depressick - Sub-Urban... II - 04 Misdeeds.mp3
Channels : 2
Sample Rate : 44100
Precision : 16-bit
Duration : 00:07:07.64 = 18858836 samples = 32072.9 CDDA sectors
File Size : 17.2M
Bit Rate : 322k
Sample Encoding: MPEG audio (layer I, II or III)
Comments :
Title=Misdeeds
Artist=The Depressick
Album=Sub-Urban... II
Tracknumber=4
Year=2015



Register


Go to the top of the page
  Insert nick Quick quote
+Quote Post
 
Start new topic
Replies (1 - 2)
post Nov 22 2020, 15:15:16
Post #2

Литр
*
Group: Подсевший
Posts: 58
Releases: 0
From: Euskadi
On Forums: 2 years 8 months
Thanks: 6 time(s)
Spain


Links?
Go to the top of the page
  Insert nick Quick quote
+Quote Post
post Nov 22 2020, 15:24:02
Post #3

Добрый
**************
Group: Металариец
Posts: 4,733
Releases: 0
On Forums: 2 years 6 months
Thanks: 11138 time(s)
Russian Federation


47 mb/320 kbps
Register


Go to the top of the page
  Insert nick Quick quote
+Quote Post

Reply to this topicStart new topic
1 User(s) are reading this topic (1 Guests and 0 Anonymous Users)
0 Members:

 



- Lo-Fi Version Support form
Copyrights and abuse reports form
Time is now: 26th January 2021 - 16:15:25