Welcome Guest ( Log In | Register )

> Bronxx - Demo 1990 [demo] (1990), Heavy Metal
post Oct 16 2016, 03:20:33
Post #1

Подвал
**************
Group: Металариец
Posts: 13,488
Releases: 7643
From: Far East (Khabarovsk)
On Forums: 10 years 4 months
Thanks: 73072 time(s)
Russian Federation


(IMG:http://metalarea.org/images/audiocovers/2016_Oct/acov_tid276159_thumb.jpg)

*Artist: Bronxx
*Album: Demo 1990 [demo]
*Year: 1990
*Genre: Heavy Metal
*Country: Germany (IMG:http://metalarea.org/forum/style_images/flags/Germany.png)
*Format: mp3@CBR320kbps
*Size: 36MB

Tracklist:
1. Fields Of Destruction 04:03
2. Stand Up Now 02:54
3. Rough And Proud 05:47
4. Heaven Can Wait 03:46
******************************
Total playing time: 16:30



Technical info
(IMG:http://metalarea.org/images/spectrogram/2016_Oct/c54ff247da3fdfa89f683c8eed4466d6.png)
Input File: 01-Fields of Destruction.mp3
Channels : 2
Sample Rate : 48000
Precision : 16-bit
Duration : 00:03:57.29 = 11389968 samples ~ 17796.8 CDDA sectors
File Size : 9.49M
Bit Rate : 320k
Sample Encoding: MPEG audio (layer I, II or III)
Comments :
Title=Fields Of Destruction
Artist=Bronxx (Ger)
Album=Demo 1990
Tracknumber=01
Year=1990
Genre=Heavy Metal



Register


Go to the top of the page
  Insert nick Quick quote
+Quote Post
 
Start new topic
Replies (1 - 1)
post Jan 3 2017, 01:59:24
Post #2

Group: Подсевший
Posts: 39
Releases: 0
From: Киев
On Forums: 13 years 4 months
Thanks: 13 time(s)
Ukraine


Thanx bro \m/
Go to the top of the page
  Insert nick Quick quote
+Quote Post

Reply to this topicStart new topic
1 User(s) are reading this topic (1 Guests and 0 Anonymous Users)
0 Members:

 



- Lo-Fi Version Support form
Copyrights and abuse reports form
Time is now: 24th June 2019 - 13:21:16