Welcome Guest ( Log In | Register )

> Morbus Wilson - Сorematic (1994), Thrash Metal
post Oct 18 2016, 11:57:30
Post #1

Аннигилятор пивА
Group Icon
Group: V.I.P
Posts: 46,692
Releases: 14016
From: Koenigsberg - TILZIT
On Forums: 11 years 11 months
Thanks: 310876 time(s)
Russian Federation


(IMG:http://metalarea.org/images/audiocovers/2016_Oct/acov_tid276288_thumb.jpg)

*Artist: Morbus Wilson
*Album: Сorematic
*Year: 1994
*Genre: Thrash Metal
*Country: Switzerland (IMG:http://metalarea.org/forum/style_images/flags/Switzerland.png)
*Format: mp3@CBR320kbps
*Size: 91MB

Tracklist:
1. Head First To Power Pain 05:40
2. Corematic 04:11
3. Killed By Lies 05:08
4. For Evermore 04:37
5. My Philosophy 04:26
6. Diluvium 05:12
7. Victim Of The Good (A New Life) 09:04
******************************
Total playing time: 38:18

Extended info
C прог/техникал элементами.
CD-rip

Patient T - Bass (ex-23rd Grade of Evil)
Patient X - Drums (ex-23rd Grade of Evil)
Patient A - Guitars (ex-23rd Grade of Evil)
Patient Z - Vocals (ex-23rd Grade of Evil)




Technical info
(IMG:http://metalarea.org/images/spectrogram/2016_Oct/5b25d807178b94302293458eeb2d89b7.png)
Input File: 02. Corematic.mp3
Channels : 2
Sample Rate : 44100
Precision : 16-bit
Duration : 00:04:10.96 = 11067248 samples = 18821.9 CDDA sectors
File Size : 10.0M
Bit Rate : 320k
Sample Encoding: MPEG audio (layer I, II or III)
Comments :
Title=Corematic
Artist=Morbus Wilson
Album=Г‘orematic
Tracknumber=2
Year=1994
Genre=Thrash Metal



Register


Вернуться к началу страницы
  Insert nick Quick quote
+Цитировать сообщение
 
Создать новую тему
Replies (1 - 5)
post Oct 19 2016, 07:58:34
Post #2

Аннигилятор пивА
Group Icon
Group: V.I.P
Posts: 46,692
Releases: 14016
From: Koenigsberg - TILZIT
On Forums: 11 years 11 months
Thanks: 310876 time(s)
Russian Federation


ЦИТАТА(sperminator @ Oct 19 2016, 06:48:14) *
rare!

сделайте зеркало, please.

раре зеркало
Register


Вернуться к началу страницы
  Insert nick Quick quote
+Цитировать сообщение
post Oct 19 2016, 18:05:12
Post #3

_ - = # Thrashogolic # = - _ ... а давайте поржём все вместе
**************
Group: Металариец
Posts: 20,777
Releases: 4444
From: 404
On Forums: 7 years 11 months
Thanks: 26970 time(s)
Ukraine


ЦИТАТА(aesteticvice @ Oct 18 2016, 13:57:30) *
C прог/техникал элементами.

Patient T - Bass (ex-23rd Grade of Evil)
Patient X - Drums (ex-23rd Grade of Evil)
Patient A - Guitars (ex-23rd Grade of Evil)
Patient Z - Vocals (ex-23rd Grade of Evil)
Погодите - как это ex- ?
23rd Grade Of Evil возникла уже намного позже 1994-го
23rd Grade Of Evil - What Will Remain When We Are Gone (2009)
23rd Grade Of Evil - Bad Men Do What Good Men Dream (2012)
Вернуться к началу страницы
  Insert nick Quick quote
+Цитировать сообщение
post Oct 19 2016, 22:32:32
Post #4

Going home. Flying high.
**************
Group: Металариец
Posts: 12,132
Releases: 0
From: The Land of Shadows
On Forums: 11 years 9 months
Thanks: 16614 time(s)
Russian Federation


ну, не "-ex", a "pre-" ... лучше бы кто-нибудь 2009-й год "23-х" перезалил тут))
Вернуться к началу страницы
  Insert nick Quick quote
+Цитировать сообщение
post Oct 28 2016, 09:49:13
Post #5

_ - = # Thrashogolic # = - _ ... а давайте поржём все вместе
**************
Group: Металариец
Posts: 20,777
Releases: 4444
From: 404
On Forums: 7 years 11 months
Thanks: 26970 time(s)
Ukraine


sperminator, кто-то перезалил, но не тут, а - там.
Вернуться к началу страницы
  Insert nick Quick quote
+Цитировать сообщение
post Jan 13 2018, 08:51:12
Post #6

Going home. Flying high.
**************
Group: Металариец
Posts: 12,132
Releases: 0
From: The Land of Shadows
On Forums: 11 years 9 months
Thanks: 16614 time(s)
Russian Federation


from web
Register


Thanks:
(1) RotAnus,
Вернуться к началу страницы
  Insert nick Quick quote
+Цитировать сообщение

ОтветитьСоздать новую тему
1 User(s) are reading this topic (1 Guests and 0 Anonymous Users)
0 Members:

 



- Lo-Fi Version Support form
Copyrights and abuse reports form
Time is now: 24th May 2018 - 14:26:51