Welcome Guest ( Log In | Register )

> Nangilima - Shards Of Loss [ep] (2016), Atmospheric Doom/Death Metal (D4)
post Oct 23 2016, 22:58:43
Post #1

Аннигилятор пивА
Group Icon
Group: V.I.P
Posts: 52,360
Releases: 16551
From: Koenigsberg - TILZIT
On Forums: 13 years 9 months
Thanks: 364239 time(s)
Russian Federation


(IMG:https://metalarea.org/images/audiocovers/2016_Oct/acov_tid276632_thumb.jpg)

*Artist: Nangilima
*Album: Shards Of Loss [ep]
*Year: 2016
*Genre: Atmospheric Doom/Death Metal
*Country: Sweden (IMG:https://metalarea.org/forum/style_images/flags/Sweden.png)
*Format: mp3@CBR320kbps
*Size: 51MB

Tracklist:
01. Fractions Of A Shattered Soul 09:47
02. Shards Of Loss 10:03
******************************
Total playing time: 19:50



Extended info
International (Sweden, Spain, Bulgaria)
Strcitly limited edition to 100 copies on CD-Digipack exclusively available through the Xtreem Music mailorder, of the EP with 2 songs (20 min.) by this swedish band of dark, heavy and atmospheric Doom/ Death for lovers of stuff like SWALLOW THE SUN, NOVEMBERS DOOM, SATURNUS, INBORN SUFFERING, DOOM:VS... [Digipack]


Technical info
(IMG:https://metalarea.org/images/spectrogram/2016_Oct/d94d1f2a855c649ffcdd3751cbe1118e.png)
Input File: 01. Fractions Of A Shattered Soul (Re-recording).mp3
Channels : 2
Sample Rate : 44100
Precision : 16-bit
Duration : 00:09:46.61 = 25869545 samples = 43995.8 CDDA sectors
File Size : 23.5M
Bit Rate : 320k
Sample Encoding: MPEG audio (layer I, II or III)
Comments :
Title=Fractions Of A Shattered Soul (Re-recording)
Artist=Nangilima
Album=Shards Of Loss
Tracknumber=1
Year=2016
Genre=Atmospheric Doom/Death Metal



Register


Go to the top of the page
  Insert nick Quick quote
+Quote Post
 
Start new topic
Replies (1 - 3)
post Oct 24 2016, 10:26:55
Post #2

Три Литра
***
Group: Завсегдатай
Posts: 247
Releases: 1
On Forums: 10 years 2 weeks
Thanks: 66 time(s)
Ukraine


Довольно неплохо, есть легкий налет блека...


Thanks:
(1) OfDoom,
Go to the top of the page
  Insert nick Quick quote
+Quote Post
post Oct 24 2016, 17:39:04
Post #3

Grind the Human Scum
*********
Group: Металариец
Posts: 988
Releases: 18
On Forums: 13 years 1 month
Thanks: 928 time(s)
Russian Federation


Тёмную материю затёр до дыр, это еп под стать дебюту, более атмосферное. Прекрасная работа!
Go to the top of the page
  Insert nick Quick quote
+Quote Post
post Aug 13 2017, 17:06:21
Post #4

Маньяк
**********
Group: Металариец
Posts: 1,126
Releases: 10
From: Нижегородская губерния
On Forums: 10 years 5 months
Thanks: 2340 time(s)
Russian Federation


Register


Thanks:
Go to the top of the page
  Insert nick Quick quote
+Quote Post

Reply to this topicStart new topic
2 User(s) are reading this topic (2 Guests and 0 Anonymous Users)
0 Members:

 



- Lo-Fi Version Support form
Copyrights and abuse reports form
Time is now: 27th February 2020 - 13:57:17