Welcome Guest ( Log In | Register )

> Horizon Of The Mute - Trobar Clus (2016), Atmospheric Doom/Death Metal
post Oct 25 2016, 22:06:30
Post #1

Аннигилятор пивА
Group Icon
Group: V.I.P
Posts: 52,360
Releases: 16550
From: Koenigsberg - TILZIT
On Forums: 14 years 4 months
Thanks: 366225 time(s)
Russian Federation


(IMG:https://metalarea.org/images/audiocovers/2016_Oct/acov_tid276754_thumb.jpg)

*Artist: Horizon Of The Mute
*Album: Trobar Clus
*Year: 2016
*Genre: Atmospheric Doom/Death Metal
*Country: Finland (IMG:https://metalarea.org/forum/style_images/flags/Finland.png)
*Format: mp3@CBR320kbps
*Size: 96MB

Tracklist:
1. Above Deep Waters 12:19
2. Inwardly Increasing Cosmos 09:25
3. Marcabru Speaks 09:22
4. Sestina 12:39
******************************
Total playing time: 43:45




Extended info
Этакий фунерально-космический дроун дум-дэт, мрачно и красиво однакож.

Horizon of the Mute mixes slow and dark doom/death metal oriented music with drone and electronic influences.


Technical info
(IMG:https://metalarea.org/images/spectrogram/2016_Oct/85faec47699e4d7b0ddcd67a040cac3b.png)
Input File: 03. Marcabru Speaks.mp3
Channels : 2
Sample Rate : 44100
Precision : 16-bit
Duration : 00:09:22.50 = 24806162 samples = 42187.4 CDDA sectors
File Size : 22.6M
Bit Rate : 321k
Sample Encoding: MPEG audio (layer I, II or III)
Comments :
Title=Marcabru Speaks
Artist=Horizon of the Mute
Album=Trobar Clus
Tracknumber=3
Year=2016
Genre=Metal
Discnumber=1



Register


Go to the top of the page
  Insert nick Quick quote
+Quote Post
 
Start new topic
Replies (1 - 5)
post Oct 26 2016, 03:15:01
Post #2

Шесть Литров
******
Group: Металариец
Posts: 551
Releases: 0
On Forums: 11 years 5 months
Thanks: 194 time(s)
Belarus


Обложка не типичная для жанра.И правда : это жалкая и примитивная пародия на Funeral Doom Metal.Без мелодий и с вокалом человека,который очень срочно желает покакать.
Опять финны и снова убожество.


Thanks:
(1) KVRT,
Go to the top of the page
  Insert nick Quick quote
+Quote Post
post Oct 26 2016, 23:46:47
Post #3

####!111
**************
Group: Металариец
Posts: 4,199
Releases: 128
From: The Mountain Of DOOM
On Forums: 13 years 1 week
Thanks: 5854 time(s)
Russian Federation


Редкий случай, когда можно согласиться с DeathCoveR (IMG:style_emoticons/default/smile1.gif)
Гитарные партии обычные, но электронные ударные и вокал отвратительны
Go to the top of the page
  Insert nick Quick quote
+Quote Post
post Jun 6 2020, 14:18:16
Post #4

Group: Дух
Posts: 9
Releases: 0
On Forums: 11 months 2 weeks
Thanks: 0 time(s)
Serbia


Please new link.
Go to the top of the page
  Insert nick Quick quote
+Quote Post
post Oct 15 2020, 01:21:38
Post #5

Три Литра
***
Group: Завсегдатай
Posts: 235
Releases: 0
On Forums: 11 years 9 months
Thanks: 26 time(s)
Antarctica


Not the most original but not as bad as comments say.

Can someone re-upload?

Ps- If this group was a girl, it would be one you would shag as meeting the minimum standard, and as no better ones in the vicinity
But you wouldn't introduce to your mum
Go to the top of the page
  Insert nick Quick quote
+Quote Post
post Oct 18 2020, 06:28:02
Post #6

Group Icon
Group: S-moderation team
Posts: 17,220
Releases: 1441
From: Zagreb
On Forums: 9 years 7 months
Thanks: 78269 time(s)
Croatia


Register
Go to the top of the page
  Insert nick Quick quote
+Quote Post

Reply to this topicStart new topic
2 User(s) are reading this topic (2 Guests and 0 Anonymous Users)
0 Members:

 



- Lo-Fi Version Support form
Copyrights and abuse reports form
Time is now: 21st October 2020 - 12:06:18