Welcome Guest ( Log In | Register )

> Arcane North - Enter The Arcane North [ep] (2014), Black Metal
post Oct 27 2016, 18:09:40
Post #1

Маньяк
**********
Group: Металариец
Posts: 1,430
Releases: 1115
From: Prešov
On Forums: 4 years 7 months
Thanks: 26220 time(s)
Slovakia


(IMG:http://metalarea.org/images/audiocovers/2016_Oct/acov_tid276884_thumb.jpg)

*Artist: Arcane North
*Album: Enter The Arcane North [ep]
*Year: 2014
*Genre: Black Metal
*Country: United Kingdom (IMG:http://metalarea.org/forum/style_images/flags/United%20Kingdom.png)
*Format: mp3@CBR320kbps
*Size: 74MB

Tracklist:
1. Ravenous and Cavernous 09:12
2. Eternal Forest Waltz 10:01
3. Beneath the Crooked Oak 10:18
******************************
Total playing time: 29:31



Extended info
Legion Blotan Records


Technical info
(IMG:http://metalarea.org/images/spectrogram/2016_Oct/88115d3316097f162f739b803afaf269.png)
Input File: 02. Eternal Forest Waltz.mp3
Channels : 2
Sample Rate : 44100
Precision : 16-bit
Duration : 00:10:00.95 = 26502071 samples = 45071.5 CDDA sectors
File Size : 24.5M
Bit Rate : 326k
Sample Encoding: MPEG audio (layer I, II or III)
Comments :
Title=Eternal Forest Waltz
Artist=Arcane North
Album=Enter The Arcane North
Tracknumber=02/03
Year=2014
Genre=Black Metal



Register


Go to the top of the page
  Insert nick Quick quote
+Quote Post
 
Start new topic
Replies (1 - 3)
post Oct 29 2016, 12:55:28
Post #2

Маньяк
**********
Group: Металариец
Posts: 1,496
Releases: 23
From: Spain
On Forums: 11 years 2 months
Thanks: 1152 time(s)
Spain


Great thks! I'm looking also for torver demo "From Beyond the Abyss"


Thanks:
(1) An225,
Go to the top of the page
  Insert nick Quick quote
+Quote Post
post Feb 10 2017, 20:33:30
Post #3

Black is beautiful
***********
Group: Металариец
Posts: 1,643
Releases: 4
On Forums: 6 years 8 months
Thanks: 305 time(s)
Unknown


Music like great surf.
(IMG:style_emoticons/default/pray.gif)
Go to the top of the page
  Insert nick Quick quote
+Quote Post
post Nov 8 2018, 22:20:04
Post #4

добрый мизантроп
***********
Group: Металариец
Posts: 1,555
Releases: 0
From: Минск
On Forums: 8 years 2 days
Thanks: 465 time(s)
Madagascar


Замечательный спокойный (в духе АБМ) блэк

from dark
Register


Thanks:
(1) kim666,
Go to the top of the page
  Insert nick Quick quote
+Quote Post

Reply to this topicStart new topic
2 User(s) are reading this topic (2 Guests and 0 Anonymous Users)
0 Members:

 



- Lo-Fi Version Support form
Copyrights and abuse reports form
Time is now: 17th November 2018 - 10:13:12