Welcome Guest ( Log In | Register )

> Fluisteraars - Gelderland [ep] (2016), Black Metal (D4)
post Oct 28 2016, 22:04:28
Post #1

Thrash, Beer & Violence
**************
Group: Металариец
Posts: 5,503
Releases: 2772
From: Крестов Брод (Russland)
On Forums: 11 years 1 month
Thanks: 39745 time(s)
Russian Federation


(IMG:http://metalarea.org/images/audiocovers/2016_Oct/acov_tid276973_thumb.jpg)

*Artist: Fluisteraars
*Album: Gelderland [ep]
*Year: 2016
*Genre: Black Metal
*Country: Netherlands (IMG:http://metalarea.org/forum/style_images/flags/Netherlands.png)
*Format: mp3@CBR320kbps
*Size: 22MB

Tracklist:
1. Zijsselt 04:42
2. Stuk 04:52
******************************
Total playing time: 9:34



Extended info
Label:Eisenwald Tonschmiede
Format:7" vinyl (45 RPM)
Limitation:300 copies
Reviews:None yet


Technical info
(IMG:http://metalarea.org/images/spectrogram/2016_Oct/99dacaba027befe6baa2d2013925b8a5.png)
Input File: 01. Zijsselt.mp3
Channels : 2
Sample Rate : 44100
Precision : 16-bit
Duration : 00:04:42.10 = 12440566 samples = 21157.4 CDDA sectors
File Size : 11.3M
Bit Rate : 320k
Sample Encoding: MPEG audio (layer I, II or III)
Comments :
Title=Zijsselt
Artist=Fluisteraars
Album=Gelderland (EP)
Tracknumber=1
Year=2016
Genre=138



Register


Go to the top of the page
  Insert nick Quick quote
+Quote Post
 
Start new topic
Replies (1 - 4)
post Oct 29 2016, 11:47:06
Post #2

Crush! Kill! Destroy!
**************
Group: Металариец
Posts: 4,681
Releases: 15
From: Kaliningrad
On Forums: 11 years 9 hours
Thanks: 4328 time(s)
Russian Federation


Очень отлично!
Go to the top of the page
  Insert nick Quick quote
+Quote Post
post Nov 11 2016, 05:00:44
Post #3

стазис эпидерсис
**************
Group: Металариец
Posts: 2,125
Releases: 0
On Forums: 2 years 9 months
Thanks: 1282 time(s)
Unknown


с Drudkh наверное общие инструменты на две группы, и это клёво, звук ласкает слух)
Go to the top of the page
  Insert nick Quick quote
+Quote Post
post Nov 11 2016, 08:38:40
Post #4

I hate you all
***********
Group: Металариец
Posts: 1,821
Releases: 74
From: Ukraine
On Forums: 11 years 6 months
Thanks: 4668 time(s)
Ukraine


Самая слабая их работа , по сравнению с другими релизами . Не сказать , что полный отстой , но после двух отменных альбомов , ожидал от них большего .
Go to the top of the page
  Insert nick Quick quote
+Quote Post
post Nov 8 2018, 14:30:14
Post #5

добрый мизантроп
***********
Group: Металариец
Posts: 1,555
Releases: 0
From: Минск
On Forums: 8 years 2 days
Thanks: 465 time(s)
Madagascar


Go to the top of the page
  Insert nick Quick quote
+Quote Post

Reply to this topicStart new topic
1 User(s) are reading this topic (1 Guests and 0 Anonymous Users)
0 Members:

 



- Lo-Fi Version Support form
Copyrights and abuse reports form
Time is now: 17th November 2018 - 10:15:50