Welcome Guest ( Log In | Register )

> Cultes Des Ghoules - Coven, Or Evil Ways Instead Of Love (2016), Black Metal
post Nov 4 2016, 12:14:16
Post #1

Group Icon
Group: Curation team
Posts: 1,944
Releases: 148
On Forums: 14 years 1 month
Thanks: 15522 time(s)
Russian Federation


(IMG:http://metalarea.org/images/audiocovers/2016_Nov/acov_tid277425_thumb.jpg)

*Artist: Cultes Des Ghoules
*Album: Coven, Or Evil Ways Instead Of Love
*Year: 2016
*Genre: Black Metal
*Country: Poland (IMG:http://metalarea.org/forum/style_images/flags/Poland.png)
*Format: mp3@CBR320kbps
*Size: 206MB

Tracklist:
Disc 1
1. The Prophecy (Prologue) / Devell, the Devell He Is, I Swear God... (Scene I) 22:49
2. Mischief, Mischief, the Devilry Is at Toil... (Scene II) 11:29
3. Strange Day, See the Clash of Heart and Reason... (Scene III) 20:47
4. Storm Is Coming, Come the Blessed Madness... (Scene IV) 14:39
Disc 2
1. Satan, Father, Savior, Hear My Prayer... (Scene V) 28:03
******************************
Total playing time: 1:37:47



Extended info
Under the Sign of Garazel Productions, October 31st.


Technical info
(IMG:http://metalarea.org/images/spectrogram/2016_Nov/d21e0d76de75ad8ef519aae20bfe1651.png)
Input File: 1-02 Mischief, Mischief, The Devilry.mp3
Channels : 2
Sample Rate : 44100
Precision : 16-bit
Duration : 00:11:32.43 = 30535987 samples = 51932 CDDA sectors
File Size : 28.0M
Bit Rate : 323k
Sample Encoding: MPEG audio (layer I, II or III)
Comments :
Title=Mischief, Mischief, The Devilry Is At Toil... (Scene II)
Artist=Cultes Des Ghoules
Album=Coven, Or Evil Ways Instead Of Love
Tracknumber=2/4
Year=2016
Genre=Black Metal
Discnumber=1/2



Register


Register


Go to the top of the page
  Insert nick Quick quote
+Quote Post
2 Pages V  < 1 2  
Start new topic
Replies (30 - 32)
post Dec 1 2016, 18:59:13
Post #31

Шесть Литров
******
Group: Металариец
Posts: 539
Releases: 4
From: Москва
On Forums: 11 years 9 months
Thanks: 751 time(s)
Russian Federation


По сабжу. Хороший альбом. Никакой он не сложный, рифы легкие как дважды два, и если их повторяют по 20 раз, то ни о какой сложности это не говорит. Скорее всего музыканты специально так растянули, чтобы эстеты восторгались помпезностью, идейностью и концептуальностью. В общем, поржать над фанатами им удалось. Бас звучит как всегда идеально, гитары тоже, хотя атмосфера на прошлом минике нравилась больше, там она умеренно подвальная, тут же более коммерческая. Хорошие тексты. Этакая история одержимого, которая опять таки очень растянута, диалоги черта в голове человека, противоречия и сомнения веры, драматургия и т.д. Хотя вряд ли тут кто-то тексты читал. 60% крутости альбома именно текст и вложенная туда история. Кстати, наверное и растянули всё, чтобы влезли все слова, получив тем самым законченное театральное представление, которое кончается победой злых сил, полной одержимостью и убийствами побочных персонажей и самого героя также. В общем, повторюсь, ничего сложного в альбоме нет, но сделано круто. Как я и говорил выше - саундтрек бм, но не современное кино, а старое черно-белое.


Thanks:
Go to the top of the page
  Insert nick Quick quote
+Quote Post
post Apr 23 2017, 16:44:51
Post #32

Шесть Литров
******
Group: Металариец
Posts: 562
Releases: 0
From: Мелитополь
On Forums: 6 years 9 months
Thanks: 122 time(s)
Ukraine


Познакомился я недавно с дискографией данного проекта и соглашусь с пользователем выше - ничего в этом альбоме нет эдакого сложного и непривычного либо жуткого авангардного (что может показаться из-за обложки). Тот же DSO для меня более непонятнее и непривычнее.
А данный альбом - это всё тот же Cultes des Ghoules, который сам по себе, на мой взгляд, проект самобытный и необычный, хоть по духу и является (опять-аки - на мой взгляд) тем самым блэком. Это ритуальная и атмосферная музыка, подчас очень интересная. В общем - это достойное наследие Necromantia, Proclamation и Teitanblood.
Go to the top of the page
  Insert nick Quick quote
+Quote Post
post Oct 17 2020, 19:36:41
Post #33

Only Death is Real
**********
Group: Металариец
Posts: 1,352
Releases: 0
From: R'lyeh
On Forums: 3 years 10 months
Thanks: 1631 time(s)
Poland


Only the length of this album could be a bit pretentious, but the album is great. Very gloomy and evil like Necromantia. (IMG:style_emoticons/default/true_black.gif)
The story included in lyrics is very, very interesting. English village, George Pickingill, witchcraft, the Devil. Like an old and good horror or medieval stories about Satan. (IMG:style_emoticons/default/25.gif)


Go to the top of the page
  Insert nick Quick quote
+Quote Post

2 Pages V  < 1 2
Reply to this topicStart new topic
1 User(s) are reading this topic (1 Guests and 0 Anonymous Users)
0 Members:

 



- Lo-Fi Version Support form
Copyrights and abuse reports form
Time is now: 27th October 2020 - 01:43:00